Оценка торрента
5 0%  0%  [ 0 ]
4 0%  0%  [ 0 ]
3 0%  0%  [ 0 ]
2 0%  0%  [ 0 ]
1 0%  0%  [ 0 ]
Всего голосов : 0
Торрент файл
скачать торрент магнет ссылка Добавлен: 08 мар 2011, 22:48
Размер: 282.03 МБ
Сидеров: 1
Личеров: 7
Статус: (Sk@zo4ниK)
Автор

СообщениеДобавлено: 08 мар 2011, 22:49 

Не в сети
Супермодератор
Дата регистрации:
05 май 2010, 08:24
Спасибо: 132 / 2
Сообщения: 321

Relentless Reckless Forever

Children of Bodom


Год: 2011
Жанр: Melodic Death Metal, Power Metal
Страна: Finland

Продолжительность: 00:36:23
Формат/Кодек: FLAC
Битрейт аудио: lossless

Трек-лист
01. Not My Funeral [00:04:55]
02. Shovel Knockout [00:04:03]
03. Roundtrip to Hell and Back [00:03:47]
04. Pussyfoot Miss Suicide [00:04:10]
05. Relentless Reckless Forever [00:04:41]
06. Ugly [00:04:12]
07. Cry of the Nihilist [00:03:31]
08. Was It Worth It? [00:04:06]
09. Northpole Throwdown [00:02:54]
Exact Audio Copy V0.99 prebeta 5 from 4. May 2009

EAC extraction logfile from 7. March 2011, 14:13

Children of Bodom / Relentless Reckless Forever

Used drive : HL-DT-STDVDRAM GH40F Adapter: 0 ID: 0

Read mode : Secure
Utilize accurate stream : Yes
Defeat audio cache : Yes
Make use of C2 pointers : No

Read offset correction : 667
Overread into Lead-In and Lead-Out : No
Fill up missing offset samples with silence : Yes
Delete leading and trailing silent blocks : No
Null samples used in CRC calculations : No
Used interface : Native Win32 interface for Win NT & 2000
Gap handling : Appended to previous track

Used output format : User Defined Encoder
Selected bitrate : 768 kBit/s
Quality : High
Add ID3 tag : No
Command line compressor : C:Program Files (x86)Exact Audio CopyFLACFLAC.EXE
Additional command line options : -6 -V -T "ARTIST=%a" -T "TITLE=%t" -T "ALBUM=%g" -T "DATE=%y" -T "TRACKNUMBER=%n" -T "GENRE=%m" -T "COMMENT=%e" %s -o %d

TOC of the extracted CD

Track | Start | Length | Start sector | End sector
---------------------------------------------------------
1 | 0:00.00 | 4:55.16 | 0 | 22140
2 | 4:55.16 | 4:03.34 | 22141 | 40399
3 | 8:58.50 | 3:47.43 | 40400 | 57467
4 | 12:46.18 | 4:10.30 | 57468 | 76247
5 | 16:56.48 | 4:41.44 | 76248 | 97366
6 | 21:38.17 | 4:12.60 | 97367 | 116326
7 | 25:51.02 | 3:31.12 | 116327 | 132163
8 | 29:22.14 | 4:06.29 | 132164 | 150642
9 | 33:28.43 | 2:54.53 | 150643 | 163745

Track 1

Filename C:MusicChildren of Bodom - 2011 - Relentless Reckless Forever [flac]�1. Not My Funeral.wav

Pre-gap length 0:00:02.00

Peak level 100.0 %
Track quality 99.9 %
Test CRC C359722C
Copy CRC C359722C
Track not present in AccurateRip database
Copy OK

Track 2

Filename C:MusicChildren of Bodom - 2011 - Relentless Reckless Forever [flac]�2. Shovel Knockout.wav

Peak level 100.0 %
Track quality 100.0 %
Test CRC EFDF6749
Copy CRC EFDF6749
Track not present in AccurateRip database
Copy OK

Track 3

Filename C:MusicChildren of Bodom - 2011 - Relentless Reckless Forever [flac]�3. Roundtrip to Hell and Back.wav

Peak level 100.0 %
Track quality 100.0 %
Test CRC 4AD4850E
Copy CRC 4AD4850E
Track not present in AccurateRip database
Copy OK

Track 4

Filename C:MusicChildren of Bodom - 2011 - Relentless Reckless Forever [flac]�4. Pussyfoot Miss Suicide.wav

Peak level 100.0 %
Track quality 99.9 %
Test CRC AC504BF5
Copy CRC AC504BF5
Track not present in AccurateRip database
Copy OK

Track 5

Filename C:MusicChildren of Bodom - 2011 - Relentless Reckless Forever [flac]�5. Relentless Reckless Forever.wav

Peak level 100.0 %
Track quality 99.9 %
Test CRC 6F5B51DE
Copy CRC 6F5B51DE
Track not present in AccurateRip database
Copy OK

Track 6

Filename C:MusicChildren of Bodom - 2011 - Relentless Reckless Forever [flac]�6. Ugly.wav

Peak level 100.0 %
Track quality 100.0 %
Test CRC 31AAD051
Copy CRC 31AAD051
Track not present in AccurateRip database
Copy OK

Track 7

Filename C:MusicChildren of Bodom - 2011 - Relentless Reckless Forever [flac]�7. Cry of the Nihilist.wav

Peak level 100.0 %
Track quality 99.9 %
Test CRC 1C698423
Copy CRC 1C698423
Track not present in AccurateRip database
Copy OK

Track 8

Filename C:MusicChildren of Bodom - 2011 - Relentless Reckless Forever [flac]�8. Was It Worth It .wav

Peak level 100.0 %
Track quality 99.9 %
Test CRC 24198675
Copy CRC 24198675
Track not present in AccurateRip database
Copy OK

Track 9

Filename C:MusicChildren of Bodom - 2011 - Relentless Reckless Forever [flac]�9. Northpole Throwdown.wav

Peak level 100.0 %
Track quality 99.9 %
Test CRC 20EC423E
Copy CRC 20EC423E
Track not present in AccurateRip database
Copy OK

None of the tracks are present in the AccurateRip database

No errors occurred

End of status report
REM GENRE "Death Metal"
REM DATE 2011
REM DISCID 63088709
REM COMMENT "ExactAudioCopy v0.99pb5"
PERFORMER "Children of Bodom"
TITLE "Relentless Reckless Forever"
FILE "01. Not My Funeral.wav" WAVE
TRACK 01 AUDIO
TITLE "Not My Funeral"
PERFORMER "Children of Bodom"
INDEX 01 00:00:00
FILE "02. Shovel Knockout.wav" WAVE
TRACK 02 AUDIO
TITLE "Shovel Knockout"
PERFORMER "Children of Bodom"
INDEX 01 00:00:00
FILE "03. Roundtrip to Hell and Back.wav" WAVE
TRACK 03 AUDIO
TITLE "Roundtrip to Hell and Back"
PERFORMER "Children of Bodom"
INDEX 01 00:00:00
FILE "04. Pussyfoot Miss Suicide.wav" WAVE
TRACK 04 AUDIO
TITLE "Pussyfoot Miss Suicide"
PERFORMER "Children of Bodom"
INDEX 01 00:00:00
FILE "05. Relentless Reckless Forever.wav" WAVE
TRACK 05 AUDIO
TITLE "Relentless Reckless Forever"
PERFORMER "Children of Bodom"
INDEX 01 00:00:00
FILE "06. Ugly.wav" WAVE
TRACK 06 AUDIO
TITLE "Ugly"
PERFORMER "Children of Bodom"
INDEX 01 00:00:00
FILE "07. Cry of the Nihilist.wav" WAVE
TRACK 07 AUDIO
TITLE "Cry of the Nihilist"
PERFORMER "Children of Bodom"
INDEX 01 00:00:00
FILE "08. Was It Worth It .wav" WAVE
TRACK 08 AUDIO
TITLE "Was It Worth It?"
PERFORMER "Children of Bodom"
INDEX 01 00:00:00
FILE "09. Northpole Throwdown.wav" WAVE
TRACK 09 AUDIO
TITLE "Northpole Throwdown"
PERFORMER "Children of Bodom"
INDEX 01 00:00:00



Вернуться к началу
 Профиль Отправить личное сообщение  
 
   Похожие торренты   Автор   Торрент   Размер 
В этой теме нет новых непрочитанных сообщений. Freedom Call - Дискография [1999-2014, Melodic power metal, MP3]

salma3

0 | 0

2.18 ГБ

В этой теме нет новых непрочитанных сообщений. Kataklysm - Of Ghosts And Gods [Limited Edition] [2015, Melodic Death Metal, MP3]

salma3

0 | 0

223.36 МБ

В этой теме нет новых непрочитанных сообщений. Nightwish - Endless Forms Most Beautiful [2015, Gothic Metal, Symphonic Power Metal, MP3]

salma3

0 | 0

180.62 МБ

В этой теме нет новых непрочитанных сообщений. Сборник - Rock Collection 1997 [Rock, Metal, 2016] FLAC

salma3

20 | 4

12.43 ГБ

В этой теме нет новых непрочитанных сообщений. DragonForce - In The Line Of Fire [2015, Power Metal, MP3]

salma3

0 | 0

158.41 МБ

В этой теме нет новых непрочитанных сообщений. The Bloodline - We Are One [2015, Melodic Metalcore, Modern Metal, MP3]

salma3

0 | 0

97.51 МБ

В этой теме нет новых непрочитанных сообщений. Путь Огня - Страж Спящих Бурь [2013, Heavy, Power Metal, MP3]

salma3

0 | 10

71.86 МБ


СообщениеДобавлено: 08 мар 2011, 23:02 

Не в сети
Супермодератор
Аватара пользователя
Дата регистрации:
26 апр 2010, 22:17
Спасибо: 40 / 3
Сообщения: 377
Если бы ещё в мр3 выложил - цены бы тебе не было)


Вернуться к началу
 Профиль Отправить личное сообщение  
 

СообщениеДобавлено: 08 мар 2011, 23:03 

Не в сети
Супермодератор
Дата регистрации:
05 май 2010, 08:24
Спасибо: 132 / 2
Сообщения: 321
100 рублей и выложу)


Вернуться к началу
 Профиль Отправить личное сообщение  
 
Начать новую тему Ответить на тему  [ Сообщений: 3 ] 




Для Мосгорсуда, Роскомнадзора и рекламодателей:: mosgorsud-torrent[собачка]yandex.ru
cron