Оценка торрента
5 0%  0%  [ 0 ]
4 0%  0%  [ 0 ]
3 0%  0%  [ 0 ]
2 0%  0%  [ 0 ]
1 0%  0%  [ 0 ]
Всего голосов : 0
Торрент файл
скачать торрент магнет ссылка Добавлен: 14 дек 2010, 23:05
Размер: 1.2 ГБ
Сидеров: 80
Личеров: 29
Статус: (Compressor)
Автор

СообщениеДобавлено: 14 дек 2010, 23:05 

Не в сети
Дата регистрации:
02 дек 2010, 14:50
Спасибо: 45 / 2
Сообщения: 280
Откуда: Из интернета


Исполнитель: A-Ha
Альбом: 25
Тип релиза: Официальный сборник [Compilation]
Лейбл: Warner Music Japan Inc. WPCR-13946/7
Дата выпуска: 2010
Жанр: Pop
Формат: FLAC (Image+cue)
Битрейт: 954-957 kbps
Продолжительность: 02:35:33

Треклист:
01. Take On Me [00:03:49]
02. Hunting High And Low (7'' Remix) [00:03:46]
03. Stay On These Roads [00:04:46]
04. Foot Of The Mountain [00:03:57]
05. The Sun Always Shines On T.V. [00:05:07]
06. I've Been Losing You [00:04:25]
07. Summer Moved On [00:04:36]
08. Crying In The Rain [00:04:21]
09. Analogue [00:03:49]
10. Manhattan Skyline (Edit Version) [00:04:19]
11. The Swing Of Things [00:04:14]
12. Scoundrel Days [00:03:59]
13. Rolling Thunder [00:05:43]
14. And You Tell Me [00:01:52]
15. You Are The One (7'' Remix) [00:03:49]
16. The Blue Sky [00:02:34]
17. The Living Daylights [00:04:12]
18. Lifelines [00:04:16]
19. Living A Boy's Adventure Tale [00:04:59]


01. Velvet [00:04:19]
02. Angel In The Snow (Edit) [00:04:06]
03. Shadowside (Single Edit) [00:03:30]
04. Train Of Thought (7'' Remix) [00:04:15]
05. Out Of Blue Comes Green [00:06:43]
06. Dark Is The Night For All [00:03:45]
07. Waiting For Her [00:04:51]
08. Here I Stand And Face The Rain [00:04:33]
09. The Blood That Moves The Body (Two-Time Gun Remix) [00:04:09]
10. Minor Earth Major Sky (Niven's Radio Edit) [00:04:01]
11. Cry Wolf [00:04:05]
12. The Weight Of The Wind [00:03:59]
13. Slender Frame [00:03:43]
14. Move To Memphis (Single Version) [00:04:16]
15. Touchy! (UK DJ Edit) [00:03:37]
16. I Call Your Name [00:04:30]
17. Shapes That Go Together [00:04:14]
18. Butterfly, Butterfly (The Last Hurrah) [00:04:08]


Exact Audio Copy V1.0 beta 1 from 15. November 2010

EAC extraction logfile from 9. December 2010, 22:05

A-ha / 25 - Disc 1 (Japanese Version)

Used drive : PIONEER DVD-RW DVR-112D Adapter: 2 ID: 0

Read mode : Secure
Utilize accurate stream : Yes
Defeat audio cache : Yes
Make use of C2 pointers : No

Read offset correction : 48
Overread into Lead-In and Lead-Out : No
Fill up missing offset samples with silence : Yes
Delete leading and trailing silent blocks : No
Null samples used in CRC calculations : Yes
Used interface : Installed external ASPI interface

Used output format : User Defined Encoder
Selected bitrate : 1024 kBit/s
Quality : High
Add ID3 tag : No
Command line compressor : C:Program Files (x86)Exact Audio CopyFlacflac.exe
Additional command line options : -5 -V -T "ARTIST=%a" -T "TITLE=%t" -T "ALBUM=%g" -T "DATE=%y" -T "TRACKNUMBER=%n" -T "GENRE=%m" -T "COMMENT=EAC FLAC -5" %s


TOC of the extracted CD

Track | Start | Length | Start sector | End sector
---------------------------------------------------------
1 | 0:00.00 | 3:51.34 | 0 | 17358
2 | 3:51.34 | 3:48.67 | 17359 | 34525
3 | 7:40.26 | 4:48.58 | 34526 | 56183
4 | 12:29.09 | 3:59.27 | 56184 | 74135
5 | 16:28.36 | 5:09.25 | 74136 | 97335
6 | 21:37.61 | 4:27.37 | 97336 | 117397
7 | 26:05.23 | 4:38.53 | 117398 | 138300
8 | 30:44.01 | 4:23.66 | 138301 | 158091
9 | 35:07.67 | 3:51.14 | 158092 | 175430
10 | 38:59.06 | 4:21.62 | 175431 | 195067
11 | 43:20.68 | 4:17.04 | 195068 | 214346
12 | 47:37.72 | 4:02.00 | 214347 | 232496
13 | 51:39.72 | 5:45.37 | 232497 | 258408
14 | 57:25.34 | 1:55.02 | 258409 | 267035
15 | 59:20.36 | 3:51.44 | 267036 | 284404
16 | 63:12.05 | 2:36.22 | 284405 | 296126
17 | 65:48.27 | 4:14.52 | 296127 | 315228
18 | 70:03.04 | 4:18.34 | 315229 | 334612
19 | 74:21.38 | 5:02.10 | 334613 | 357272


Range status and errors

Selected range

Filename F:A-ha - 25 - 2010 (Japan)CD1A-ha - 25 - Disc 1 (Japanese Version).wav

Peak level 100.0 %
Extraction speed 0.5 X
Range quality 100.0 %
Test CRC 4EDBFD12
Copy CRC 4EDBFD12
Copy OK

No errors occurred


AccurateRip summary

Track 1 not present in database
Track 2 not present in database
Track 3 not present in database
Track 4 not present in database
Track 5 not present in database
Track 6 not present in database
Track 7 not present in database
Track 8 not present in database
Track 9 not present in database
Track 10 not present in database
Track 11 not present in database
Track 12 not present in database
Track 13 not present in database
Track 14 not present in database
Track 15 not present in database
Track 16 not present in database
Track 17 not present in database
Track 18 not present in database
Track 19 not present in database

None of the tracks are present in the AccurateRip database

End of status report

Exact Audio Copy V1.0 beta 1 from 15. November 2010

EAC extraction logfile from 9. December 2010, 22:30

A-ha / 25 - Disc 2 (Japanese Version)

Used drive : PIONEER DVD-RW DVR-112D Adapter: 2 ID: 0

Read mode : Secure
Utilize accurate stream : Yes
Defeat audio cache : Yes
Make use of C2 pointers : No

Read offset correction : 48
Overread into Lead-In and Lead-Out : No
Fill up missing offset samples with silence : Yes
Delete leading and trailing silent blocks : No
Null samples used in CRC calculations : Yes
Used interface : Installed external ASPI interface

Used output format : User Defined Encoder
Selected bitrate : 1024 kBit/s
Quality : High
Add ID3 tag : No
Command line compressor : C:Program Files (x86)Exact Audio CopyFlacflac.exe
Additional command line options : -5 -V -T "ARTIST=%a" -T "TITLE=%t" -T "ALBUM=%g" -T "DATE=%y" -T "TRACKNUMBER=%n" -T "GENRE=%m" -T "COMMENT=EAC FLAC -5" %s


TOC of the extracted CD

Track | Start | Length | Start sector | End sector
---------------------------------------------------------
1 | 0:00.00 | 4:22.12 | 0 | 19661
2 | 4:22.12 | 4:08.58 | 19662 | 38319
3 | 8:30.70 | 3:32.53 | 38320 | 54272
4 | 12:03.48 | 4:17.31 | 54273 | 73578
5 | 16:21.04 | 6:45.37 | 73579 | 103990
6 | 23:06.41 | 3:47.70 | 103991 | 121085
7 | 26:54.36 | 4:53.17 | 121086 | 143077
8 | 31:47.53 | 4:35.17 | 143078 | 163719
9 | 36:22.70 | 4:11.27 | 163720 | 182571
10 | 40:34.22 | 4:03.22 | 182572 | 200818
11 | 44:37.44 | 4:07.49 | 200819 | 219392
12 | 48:45.18 | 4:01.63 | 219393 | 237530
13 | 52:47.06 | 3:45.22 | 237531 | 254427
14 | 56:32.28 | 4:18.31 | 254428 | 273808
15 | 60:50.59 | 3:40.08 | 273809 | 290316
16 | 64:30.67 | 4:32.38 | 290317 | 310754
17 | 69:03.30 | 4:16.24 | 310755 | 329978
18 | 73:19.54 | 4:10.73 | 329979 | 348801


Range status and errors

Selected range

Filename F:A-ha - 25 - 2010 (Japan)CD2A-ha - 25 - Disc 2 (Japanese Version).wav

Peak level 100.0 %
Extraction speed 0.4 X
Range quality 100.0 %
Test CRC CFCB36C4
Copy CRC CFCB36C4
Copy OK

No errors occurred


AccurateRip summary

Track 1 not present in database
Track 2 not present in database
Track 3 not present in database
Track 4 not present in database
Track 5 not present in database
Track 6 not present in database
Track 7 not present in database
Track 8 not present in database
Track 9 not present in database
Track 10 not present in database
Track 11 not present in database
Track 12 not present in database
Track 13 not present in database
Track 14 not present in database
Track 15 not present in database
Track 16 not present in database
Track 17 not present in database
Track 18 not present in database

None of the tracks are present in the AccurateRip database

End of status report



Вернуться к началу
 Профиль Отправить личное сообщение  
 
Начать новую тему Ответить на тему  [ 1 сообщение ] 




Для Мосгорсуда, Роскомнадзора и рекламодателей:: mosgorsud-torrent[собачка]yandex.ru
cron