Оценка торрента
5 50%  50%  [ 1 ]
5 50%  50%  [ 1 ]
4 0%  0%  [ 0 ]
3 0%  0%  [ 0 ]
2 0%  0%  [ 0 ]
1 0%  0%  [ 0 ]
4 0%  0%  [ 0 ]
3 0%  0%  [ 0 ]
2 0%  0%  [ 0 ]
1 0%  0%  [ 0 ]
Всего голосов : 2
Торрент файл
скачать торрент магнет ссылка Добавлен: 10 июн 2011, 21:51
Размер: 366.4 МБ
Сидеров: 2
Личеров: 5
Статус: (Aleksandr.ru)
Автор

СообщениеДобавлено: 10 июн 2011, 21:51 

Не в сети
Супермодератор
Аватара пользователя
Дата регистрации:
22 май 2010, 12:40
Спасибо: 2199 / 102
Сообщения: 2959
Откуда: Н.Новгород

Название: Волчок
Исполнитель: Круиз
Год: 1980
Жанр: Рок
Страна: Россия

Продолжительность: 00:58:22
Формат/Кодек: APE
Битрейт аудио: lossless

Спасибо автору рипа: LYNCH MOB,рип был создан с диска,из его личной фонотеки!


01. Виза Для Круиза [0:04:54.47]
02. Волчок [0:03:40.53]
03. Душа [0:05:24.30]
04. Попугай [0:03:18.70]
05. Сказка [0:02:34.57]
06. Великий Секрет [0:05:26.30]
07. Музыка Невы [0:03:41.38]
08. Не Верил Я [0:03:30.50]
09. Средний Человек [0:02:56.00]
10. Послушай Человек [0:04:45.37]
11. Безумцы [0:04:09.68]
12. Кто-то Же Должен [0:05:13.55]
13. Когда Настанет Час [0:03:42.40]
14. Что Поделаешь - Работа [0:05:02.25]



Дополнительная информация: Записанный за день в домашней студии, в 1980 году, "Крутится волчок" стал, вероятно, первым русским хард-роковым альбомом. Одного этого факта хватает уже, чтобы попасть в Историю. А если вспомнить об анти-роковой кампании, что свирепствовала тогда не только в бюрократических кабинетах, становится ясно, что запись этого альбома была актом почти героическим. Разошедшийся по стране на магнитофонных кассетах, альбом этот вознес "Круиз" на пик популярности, а хит "Крутится волчок" знали, похоже, все...

Хард-рок "Круиза" прост -- скорее, даже слишком прост: ни вокальных изысков, ни гитарных шалостей, и даже клавиши Сергея Сарычева не слишком разбавляют повторяющиеся ритмы и незатейливые мелодические ходы. Тексты "Круиза" лишены социального пафоса, порой небрежны, порой просто банальны. Но ведь не тем силен тяжелый рок! Энергетика группы заводит и сейчас, почти двадцать лет спустя, а это, знаете ли, немногим удалось. Так что простим этой музыке ее очевидные недостатки и будем слушать -- со всем уважением, которого "Круиз" достоин.


Exact Audio Copy V0.99 prebeta 5 from 4. May 2009

Отчёт EAC об извлечении, выполненном 8. июня 2011, 23:45

Круиз / Волчок

Дисковод: _NEC DVD_RW ND-3550A Adapter: 6 ID: 0

Режим чтения : Достоверность
Использование точного потока : Да
Отключение кэша аудио : Да
Использование указателей C2 : Нет

Коррекция смещения при чтении : 48
Способность читать области Lead-in и Lead-out : Нет
Заполнение пропущенных сэмплов тишиной : Да
Удаление блоков с тишиной в начале и конце : Нет
При вычислениях CRC использовались нулевые сэмплы : Да
Интерфейс : Встроенный Win32-интерфейс для Win NT/2000

Выходной формат : Внутренние WAV-операции
Формат сэмплов : 44.100 Гц; 16 бит; стерео

TOC извлечённого CD

Трек | Старт | Длительность | Начальный сектор | Конечный сектор
---------------------------------------------------------------------
1 | 0:00.00 | 4:54.47 | 0 | 22096
2 | 4:54.47 | 3:40.53 | 22097 | 38649
3 | 8:35.25 | 5:24.30 | 38650 | 62979
4 | 13:59.55 | 3:18.70 | 62980 | 77899
5 | 17:18.50 | 2:34.57 | 77900 | 89506
6 | 19:53.32 | 5:26.30 | 89507 | 113986
7 | 25:19.62 | 3:41.38 | 113987 | 130599
8 | 29:01.25 | 3:30.50 | 130600 | 146399
9 | 32:32.00 | 2:56.00 | 146400 | 159599
10 | 35:28.00 | 4:45.37 | 159600 | 181011
11 | 40:13.37 | 4:09.68 | 181012 | 199754
12 | 44:23.30 | 5:13.55 | 199755 | 223284
13 | 49:37.10 | 3:42.40 | 223285 | 239974
14 | 53:19.50 | 5:02.25 | 239975 | 262649

Характеристики диапазона извлечения и сообщения об ошибках

Выбранный диапазон

Имя файла C:Documents and SettingsAdminРабочий столНовая папкаКруиз - Волчок.wav

Пиковый уровень 97.9 %
Качество диапазона 99.9 %
CRC теста 17D2F52F
CRC копии 17D2F52F
Копирование... OK

Ошибок не произошло



Вернуться к началу
 Профиль Отправить личное сообщение  
 
   Похожие торренты   Автор   Торрент   Размер 
В этой теме нет новых непрочитанных сообщений. Опасный круиз [01-02 из 02] [Детектив, 2018] WEBRip-AVC

salma3

181 | 74

1.14 ГБ

В этой теме нет новых непрочитанных сообщений. Опасный круиз [01-02 из 02] [Детектив, 2018] WEBRip

salma3

90 | 4

745.86 МБ

В этой теме нет новых непрочитанных сообщений. Опасный круиз [01-02 из 02] [детектив, приключения, 2018] SATRip

salma3

303 | 95

1.2 ГБ

В этой теме нет новых непрочитанных сообщений. Смертельный круиз / Der Skipper [триллер, драма, приключения, 1990] DVDRip, Dvo

salma3

112 | 34

1.46 ГБ

В этой теме нет новых непрочитанных сообщений. Последний круиз / Final Voyage [боевик, драма, 1999] DVDRip-AVC, Dvo

salma3

0 | 0

1.46 ГБ

В этой теме нет новых непрочитанных сообщений. Один безумный круиз / One Crazy Cruise [комедия, семейный, 2015] WEB-DL 1080p, Dub

salma3

105 | 29

2.48 ГБ

В этой теме нет новых непрочитанных сообщений. Hookup Hotshot: Cruising The Internet / Связаться С Членом: Круиз По Интернету (Bryan Gozzling / Evil Angel) [2017 г., Gonzo, 18+ Teens, Domination, DVDRip]

salma3

4 | 1

1.5 ГБ


Начать новую тему Ответить на тему  [ 1 сообщение ] 




Для Мосгорсуда, Роскомнадзора и рекламодателей:: mosgorsud-torrent[собачка]yandex.ru
cron