Оценка торрента
4 0%  0%  [ 0 ]
2 0%  0%  [ 0 ]
1 0%  0%  [ 0 ]
2 0%  0%  [ 0 ]
1 0%  0%  [ 0 ]
4 0%  0%  [ 0 ]
2 0%  0%  [ 0 ]
1 0%  0%  [ 0 ]
2 0%  0%  [ 0 ]
1 0%  0%  [ 0 ]
Всего голосов : 0
Торрент файл
скачать торрент магнет ссылка Добавлен: 24 июл 2011, 11:24
Размер: 14.1 ГБ
Сидеров: 1
Личеров: 3
Статус: (Aleksandr.ru)
Автор

СообщениеДобавлено: 24 июл 2011, 11:24 

Не в сети
Супермодератор
Аватара пользователя
Дата регистрации:
22 май 2010, 12:40
Спасибо: 2199 / 102
Сообщения: 2959
Откуда: Н.Новгород
Sonata Arctica - Discography (1999-2010)























Страна: Finland
Жанр: Power Metal
Страны-производители дисков: EU / JP / RU / ARG
Год издания дисков: 1999-2010
Аудио кодек: FLAC (*.flac)
Тип рипа: image+.cue / tracks+.cue
Битрейт аудио: lossless
Продолжительность: 1d 6:34:00 (41 CD)
Источники: original CD / what.cd
Наличие сканов в содержимом раздачи: да-official website | myspace | wiki (eng) | wiki (rus) | collector's info | le coin collectionneurs | discogs-Albums (Europe | Japan)
1999 - Ecliptica

[04:03] 01. Blank File
[04:35] 02. My Land
[03:41] 03. 8th Commandment
[04:55] 04. Replica
[03:48] 05. Kingdom For A Heart
[05:05] 06. FullMoon
[06:00] 07. Letter To Dana
[03:42] 08. UnOpened
[03:36] 09. Picturing The Past
[07:39] 10. Destruction Preventer
[47:10]
ФОНО FO11CD
EAC Log
Код:
Exact Audio Copy V0.99 prebeta 5 from 4. May 2009
EAC extraction logfile from 18. February 2011, 18:07
Sonata Arctica / Ecliptica
Used drive: Optiarc DVD RW AD-7220SAdapter: 3ID: 0
Read mode: Secure
Utilize accurate stream : Yes
Defeat audio cache: Yes
Make use of C2 pointers : No
Read offset correction: 6
Overread into Lead-In and Lead-Out: No
Fill up missing offset samples with silence : Yes
Delete leading and trailing silent blocks: No
Null samples used in CRC calculations: Yes
Used interface: Native Win32 interface for Win NT & 2000
Used output format : Internal WAV Routines
Sample format: 44.100 Hz; 16 Bit; Stereo
TOC of the extracted CD
Track |Start|Length| Start sector | End sector
---------------------------------------------------------
1|0:00.00 |4:03.60 |0|18284
2|4:03.60 |4:35.73 |18285|38982
3|8:39.58 |3:41.70 |38983|55627
4| 12:21.53 |4:55.07 |55628|77759
5| 17:16.60 |3:48.73 |77760|94932
6| 21:05.58 |5:05.67 |94933|117874
7| 26:11.50 |6:00.60 |117875|144934
8| 32:12.35 |3:42.24 |144935|161608
9| 35:54.59 |3:36.70 |161609|177878
10| 39:31.54 |7:39.06 |177879|212309
Range status and errors
Selected range
Filename L:\SA\1999 - Ecliptica\Sonata Arctica - Ecliptica.wav
Peak level 98.8 %
Range quality 100.0 %
Test CRC 33D9003B
Copy CRC 33D9003B
Copy OK
No errors occurred
AccurateRip summary
Track1accurately ripped (confidence 14)[7B29F4AB]
Track2accurately ripped (confidence 15)[42479533]
Track3accurately ripped (confidence 14)[33E74438]
Track4accurately ripped (confidence 15)[9B4747ED]
Track5accurately ripped (confidence 15)[E0AF02A1]
Track6accurately ripped (confidence 15)[59C0754C]
Track7accurately ripped (confidence 15)[1E99E3BD]
Track8accurately ripped (confidence 15)[79143A2D]
Track9accurately ripped (confidence 15)[CB0F5D98]
Track 10accurately ripped (confidence 15)[FF94B568]
All tracks accurately ripped
End of status report
2000 - Ecliptica [Japan]

[04:05] 01. Blank File
[04:37] 02. My Land
[03:41] 03. 8th Commandment
[04:55] 04. Replica
[03:51] 05. Kingdom For A Heart
[05:08] 06. FullMoon
[06:00] 07. Letter To Dana
[03:43] 08. UnOpened
[03:36] 09. Picturing The Past
[07:44] 10. Destruction Preventer
[04:30] 11. Mary-Lou
[51:55]
Avalon MICP-10173
EAC Log
Код:
Exact Audio Copy V0.99 prebeta 5 from 4. May 2009
EAC extraction logfile from 18. February 2011, 18:28
Sonata Arctica / Ecliptica [Japan]
Used drive: Optiarc DVD RW AD-7220SAdapter: 3ID: 0
Read mode: Secure
Utilize accurate stream : Yes
Defeat audio cache: Yes
Make use of C2 pointers : No
Read offset correction: 6
Overread into Lead-In and Lead-Out: No
Fill up missing offset samples with silence : Yes
Delete leading and trailing silent blocks: No
Null samples used in CRC calculations: Yes
Used interface: Native Win32 interface for Win NT & 2000
Used output format : Internal WAV Routines
Sample format: 44.100 Hz; 16 Bit; Stereo
TOC of the extracted CD
Track |Start|Length| Start sector | End sector
---------------------------------------------------------
1|0:00.00 |4:05.55 |0|18429
2|4:05.55 |4:37.20 |18430|39224
3|8:43.00 |3:41.70 |39225|55869
4| 12:24.70 |4:55.07 |55870|78001
5| 17:20.02 |3:51.68 |78002|95394
6| 21:11.70 |5:08.02 |95395|118496
7| 26:19.72 |6:00.60 |118497|145556
8| 32:20.57 |3:43.10 |145557|162291
9| 36:03.67 |3:36.70 |162292|178561
10| 39:40.62 |7:44.06 |178562|213367
11| 47:24.68 |4:30.10 |213368|233627
Range status and errors
Selected range
Filename L:\SA\2000 - Ecliptica [Japan]\Sonata Arctica - Ecliptica [Japan].wav
Peak level 98.8 %
Range quality 100.0 %
Test CRC 86AF1898
Copy CRC 86AF1898
Copy OK
No errors occurred
AccurateRip summary
Track1accurately ripped (confidence 5)[BAF86D7D]
Track2accurately ripped (confidence 5)[435674E2]
Track3accurately ripped (confidence 5)[BB7B194C]
Track4accurately ripped (confidence 5)[B13D6E14]
Track5accurately ripped (confidence 5)[EA6CF6B0]
Track6accurately ripped (confidence 5)[CED398EB]
Track7accurately ripped (confidence 5)[43430781]
Track8accurately ripped (confidence 5)[5D7CA141]
Track9accurately ripped (confidence 5)[411C5E47]
Track 10accurately ripped (confidence 5)[80098220]
Track 11accurately ripped (confidence 5)[104EF0B3]
All tracks accurately ripped
End of status report
2001 - Silence

[01:17] 01. ...Of Silence
[03:51] 02. Weballergy
[05:18] 03. False News Travel Fast
[07:01] 04. The End Of This Chapter
[03:40] 05. Black Sheep
[04:24] 06. Land Of The Free
[05:13] 07. Last Drop Falls
[04:37] 08. San Sebastian (Revisited)
[03:51] 09. Sing In Silence
[01:29] 10. Revontulet
[05:20] 11. Tallulah
[04:15] 12. Wolf & Raven
[11:33] 13. The Power Of One
[1:01:54]
ФОНО FO57CD
EAC Log
Код:
Exact Audio Copy V0.99 prebeta 5 from 4. May 2009
EAC extraction logfile from 18. February 2011, 16:24
Sonata Arctica / Silence
Used drive: Optiarc DVD RW AD-7220SAdapter: 3ID: 0
Read mode: Secure
Utilize accurate stream : Yes
Defeat audio cache: Yes
Make use of C2 pointers : No
Read offset correction: 6
Overread into Lead-In and Lead-Out: No
Fill up missing offset samples with silence : Yes
Delete leading and trailing silent blocks: No
Null samples used in CRC calculations: Yes
Used interface: Native Win32 interface for Win NT & 2000
Used output format : Internal WAV Routines
Sample format: 44.100 Hz; 16 Bit; Stereo
TOC of the extracted CD
Track |Start|Length| Start sector | End sector
---------------------------------------------------------
1|0:00.00 |1:17.60 |0|5834
2|1:17.60 |3:51.37 |5835|23196
3|5:09.22 |5:18.33 |23197|47079
4| 10:27.55 |7:01.37 |47080|78691
5| 17:29.17 |3:40.09 |78692|95200
6| 21:09.26 |4:24.23 |95201|115023
7| 25:33.49 |5:13.44 |115024|138542
8| 30:47.18 |4:37.15 |138543|159332
9| 35:24.33 |3:51.63 |159333|176720
10| 39:16.21 |1:29.36 |176721|183431
11| 40:45.57 |5:20.35 |183432|207466
12| 46:06.17 |4:15.45 |207467|226636
13| 50:21.62 | 11:33.03 |226637|278614
Range status and errors
Selected range
Filename L:\SA\2001 - Silence\Sonata Arctica - Silence.wav
Peak level 98.8 %
Range quality 100.0 %
Test CRC D0BE4BE4
Copy CRC D0BE4BE4
Copy OK
No errors occurred
AccurateRip summary
Track1accurately ripped (confidence 11)[3599201E]
Track2accurately ripped (confidence 11)[154A6D4F]
Track3accurately ripped (confidence 11)[FEF124E1]
Track4accurately ripped (confidence 11)[86CC0232]
Track5accurately ripped (confidence 11)[BC5EA6B2]
Track6accurately ripped (confidence 11)[DE14D1FD]
Track7accurately ripped (confidence 11)[EAD221B4]
Track8accurately ripped (confidence 11)[9818F0AF]
Track9accurately ripped (confidence 9)[AC5184D7]
Track 10accurately ripped (confidence 9)[46A9D347]
Track 11accurately ripped (confidence 9)[2C60CF03]
Track 12accurately ripped (confidence 11)[95D2FD84]
Track 13accurately ripped (confidence 10)[425E412B]
All tracks accurately ripped
End of status report
2001 - Silence [Japan]

[01:17] 01. ...Of Silence
[03:51] 02. Weballergy
[05:18] 03. False News Travel Fast
[07:01] 04. The End Of This Chapter
[03:42] 05. Black Sheep
[04:24] 06. Land Of The Free
[05:13] 07. Last Drop Falls
[04:37] 08. San Sebastian (Revisited)
[03:51] 09. Sing In Silence
[01:32] 10. Revontulet
[05:20] 11. Tallulah
[04:17] 12. Wolf & Raven
[03:51] 13. Respect The Wilderness
[11:39] 14. The Power Of One
[1:06:00]
Avalon MICP-10247
EAC Log
Код:
Exact Audio Copy V0.99 prebeta 5 from 4. May 2009
EAC extraction logfile from 18. February 2011, 16:01
Sonata Arctica / Silence [Japan]
Used drive: Optiarc DVD RW AD-7220SAdapter: 3ID: 0
Read mode: Secure
Utilize accurate stream : Yes
Defeat audio cache: Yes
Make use of C2 pointers : No
Read offset correction: 6
Overread into Lead-In and Lead-Out: No
Fill up missing offset samples with silence : Yes
Delete leading and trailing silent blocks: No
Null samples used in CRC calculations: Yes
Used interface: Native Win32 interface for Win NT & 2000
Used output format : Internal WAV Routines
Sample format: 44.100 Hz; 16 Bit; Stereo
TOC of the extracted CD
Track |Start|Length| Start sector | End sector
---------------------------------------------------------
1|0:00.00 |1:17.60 |0|5834
2|1:17.60 |3:51.37 |5835|23196
3|5:09.22 |5:18.33 |23197|47079
4| 10:27.55 |7:01.37 |47080|78691
5| 17:29.17 |3:42.40 |78692|95381
6| 21:11.57 |4:24.23 |95382|115204
7| 25:36.05 |5:13.62 |115205|138741
8| 30:49.67 |4:37.13 |138742|159529
9| 35:27.05 |3:51.65 |159530|176919
10| 39:18.70 |1:32.22 |176920|183841
11| 40:51.17 |5:20.35 |183842|207876
12| 46:11.52 |4:17.40 |207877|227191
13| 50:29.17 |3:51.45 |227192|244561
14| 54:20.62 | 11:39.38 |244562|297024
Range status and errors
Selected range
Filename L:\SA\2001 - Silence [Japan]\Sonata Arctica - Silence [Japan].wav
Peak level 98.8 %
Range quality 100.0 %
Test CRC BA6F385C
Copy CRC BA6F385C
Copy OK
No errors occurred
AccurateRip summary
Track1accurately ripped (confidence 10)[58FDB8B6]
Track2accurately ripped (confidence 10)[766B601E]
Track3accurately ripped (confidence 10)[E7AE04D9]
Track4accurately ripped (confidence 10)[B5762A70]
Track5accurately ripped (confidence 10)[6D3F213E]
Track6accurately ripped (confidence 10)[FAC8F38F]
Track7accurately ripped (confidence 10)[0827AB6C]
Track8accurately ripped (confidence 10)[F1687AD1]
Track9accurately ripped (confidence 10)[6405C44F]
Track 10accurately ripped (confidence 10)[6C16ED48]
Track 11accurately ripped (confidence 10)[32F4DDA5]
Track 12accurately ripped (confidence 10)[4D3C5658]
Track 13accurately ripped (confidence 10)[184C8C52]
Track 14accurately ripped (confidence 10)[E5D30363]
All tracks accurately ripped
End of status report
2002 - Songs Of Silence - Live In Tokyo

[01:11] 01. Intro
[04:25] 02. Weballergy
[04:10] 03. Kingdom For A Heart
[03:49] 04. Sing In Silence
[05:20] 05. False News Travel Fast
[05:15] 06. Last Drop Falls
[04:03] 07. Respect The Wilderness
[05:24] 08. FullMoon
[05:58] 09. The End Of This Chapter
[05:13] 10. Replica
[05:02] 11. My Land
[04:08] 12. Black Sheep
[06:09] 13. Wolf & Raven
[1:00:12]
ФОНО FO160CD
EAC Log
Код:
Exact Audio Copy V0.99 prebeta 5 from 4. May 2009
EAC extraction logfile from 21. February 2011, 12:58
Sonata Arctica / Songs Of Silence - Live In Tokyo
Used drive: Optiarc DVD RW AD-7220SAdapter: 3ID: 0
Read mode: Secure
Utilize accurate stream : Yes
Defeat audio cache: Yes
Make use of C2 pointers : No
Read offset correction: 6
Overread into Lead-In and Lead-Out: No
Fill up missing offset samples with silence : Yes
Delete leading and trailing silent blocks: No
Null samples used in CRC calculations: Yes
Used interface: Native Win32 interface for Win NT & 2000
Used output format : Internal WAV Routines
Sample format: 44.100 Hz; 16 Bit; Stereo
TOC of the extracted CD
Track |Start|Length| Start sector | End sector
---------------------------------------------------------
1|0:00.00 |1:11.40 |0|5364
2|1:11.40 |4:25.32 |5365|25271
3|5:36.72 |4:10.03 |25272|44024
4|9:47.00 |3:49.55 |44025|61254
5| 13:36.55 |5:20.07 |61255|85261
6| 18:56.62 |5:15.38 |85262|108924
7| 24:12.25 |4:03.29 |108925|127178
8| 28:15.54 |5:24.23 |127179|151501
9| 33:40.02 |5:58.48 |151502|178399
10| 39:38.50 |5:13.65 |178400|201939
11| 44:52.40 |5:02.05 |201940|224594
12| 49:54.45 |4:08.20 |224595|243214
13| 54:02.65 |6:09.15 |243215|270904
Range status and errors
Selected range
Filename L:\SA\2002 - Songs Of Silence - Live In Tokyo\Sonata Arctica - Songs Of Silence - Live In Tokyo.wav
Peak level 98.8 %
Range quality 100.0 %
Test CRC 67F0DA4B
Copy CRC 67F0DA4B
Copy OK
No errors occurred
AccurateRip summary
Track1accurately ripped (confidence 2)[26A68F05]
Track2accurately ripped (confidence 2)[E78A44CE]
Track3accurately ripped (confidence 2)[875650A2]
Track4accurately ripped (confidence 2)[D77CE442]
Track5accurately ripped (confidence 2)[97937015]
Track6accurately ripped (confidence 2)[179FBB29]
Track7accurately ripped (confidence 2)[D33DDABD]
Track8accurately ripped (confidence 2)[E88B8D61]
Track9accurately ripped (confidence 2)[8AE045CC]
Track 10accurately ripped (confidence 2)[E0B24E03]
Track 11accurately ripped (confidence 2)[AFC669A7]
Track 12accurately ripped (confidence 2)[AE6AC770]
Track 13accurately ripped (confidence 2)[31909E0C]
All tracks accurately ripped
End of status report
2002 - Songs Of Silence - Live In Tokyo (2CD) [Japan]

[01:11] 01. Intro
[04:25] 02. Weballergy
[04:10] 03. Kingdom For A Heart
[03:49] 04. Sing In Silence
[05:20] 05. False News Travel Fast
[05:15] 06. Last Drop Falls
[04:03] 07. Respect The Wilderness
[05:24] 08. FullMoon
[06:01] 09. The End Of This Chapter
[09:35] 10. The Power Of One
[05:12] 11. Replica
[05:02] 12. My Land
[04:08] 13. Black Sheep
[06:09] 14. Wolf & Raven
[1:09:48]
[04:33] 01. Blank File
[04:54] 02. Land Of The Free
[03:27] 03. PeaceMaker
[12:55]
Avalon MICP-10290
EAC Log CD1
Код:
Exact Audio Copy V0.99 prebeta 5 from 4. May 2009
EAC extraction logfile from 21. February 2011, 13:24
Sonata Arctica / Songs Of Silence - Live In Tokyo [Japan] CD1
Used drive: Optiarc DVD RW AD-7220SAdapter: 3ID: 0
Read mode: Secure
Utilize accurate stream : Yes
Defeat audio cache: Yes
Make use of C2 pointers : No
Read offset correction: 6
Overread into Lead-In and Lead-Out: No
Fill up missing offset samples with silence : Yes
Delete leading and trailing silent blocks: No
Null samples used in CRC calculations: Yes
Used interface: Native Win32 interface for Win NT & 2000
Used output format : Internal WAV Routines
Sample format: 44.100 Hz; 16 Bit; Stereo
TOC of the extracted CD
Track |Start|Length| Start sector | End sector
---------------------------------------------------------
1|0:00.00 |1:11.40 |0|5364
2|1:11.40 |4:25.32 |5365|25271
3|5:36.72 |4:10.03 |25272|44024
4|9:47.00 |3:49.55 |44025|61254
5| 13:36.55 |5:20.07 |61255|85261
6| 18:56.62 |5:15.38 |85262|108924
7| 24:12.25 |4:03.29 |108925|127178
8| 28:15.54 |5:24.23 |127179|151501
9| 33:40.02 |6:01.18 |151502|178594
10| 39:41.20 |9:35.07 |178595|221726
11| 49:16.27 |5:12.10 |221727|245136
12| 54:28.37 |5:02.05 |245137|267791
13| 59:30.42 |4:08.20 |267792|286411
14| 63:38.62 |6:09.15 |286412|314101
Range status and errors
Selected range
Filename L:\SA\2002 - Songs Of Silence - Live In Tokyo [Japan]\Sonata Arctica - Songs Of Silence - Live In Tokyo [Japan] CD1.wav
Peak level 98.8 %
Range quality 100.0 %
Test CRC 2CFB2B3F
Copy CRC 2CFB2B3F
Copy OK
No errors occurred
AccurateRip summary
Track1accurately ripped (confidence 4)[67A778DA]
Track2accurately ripped (confidence 4)[5CEB8156]
Track3accurately ripped (confidence 4)[B4FEBB79]
Track4accurately ripped (confidence 4)[E650DBB4]
Track5accurately ripped (confidence 4)[3978C2CA]
Track6accurately ripped (confidence 4)[5670DACA]
Track7accurately ripped (confidence 4)[C326441E]
Track8accurately ripped (confidence 4)[FEF4E229]
Track9accurately ripped (confidence 4)[4E985B69]
Track 10accurately ripped (confidence 4)[E9E53F19]
Track 11accurately ripped (confidence 4)[379AB4B5]
Track 12accurately ripped (confidence 4)[FFE45DB6]
Track 13accurately ripped (confidence 3)[6D6EE8A7]
Track 14accurately ripped (confidence 4)[9F90C141]
All tracks accurately ripped
End of status report
EAC Log CD2
Код:
Exact Audio Copy V0.99 prebeta 5 from 4. May 2009
EAC extraction logfile from 21. February 2011, 13:32
Sonata Arctica / Songs Of Silence - Live In Tokyo [Japan] CD2
Used drive: Optiarc DVD RW AD-7220SAdapter: 3ID: 0
Read mode: Secure
Utilize accurate stream : Yes
Defeat audio cache: Yes
Make use of C2 pointers : No
Read offset correction: 6
Overread into Lead-In and Lead-Out: No
Fill up missing offset samples with silence : Yes
Delete leading and trailing silent blocks: No
Null samples used in CRC calculations: Yes
Used interface: Native Win32 interface for Win NT & 2000
Used output format : Internal WAV Routines
Sample format: 44.100 Hz; 16 Bit; Stereo
TOC of the extracted CD
Track |Start|Length| Start sector | End sector
---------------------------------------------------------
1|0:00.00 |4:33.65 |0|20539
2|4:33.65 |4:54.18 |20540|42607
3|9:28.08 |3:27.38 |42608|58170
Range status and errors
Selected range
Filename L:\SA\2002 - Songs Of Silence - Live In Tokyo [Japan]\Sonata Arctica - Songs Of Silence - Live In Tokyo [Japan] CD2.wav
Peak level 98.8 %
Range quality 100.0 %
Test CRC E79A45CE
Copy CRC E79A45CE
Copy OK
No errors occurred
AccurateRip summary
Track1accurately ripped (confidence 4)[45230BB6]
Track2accurately ripped (confidence 4)[B415D7FB]
Track3accurately ripped (confidence 4)[E5B13DCA]
All tracks accurately ripped
End of status report
2003 - Winterheart's Guild

[05:37] 01. Abandoned, Pleased, Brainwashed, Exploited
[06:58] 02. Gravenimage
[04:37] 03. The Cage
[03:58] 04. Silver Tongue
[05:08] 05. The Misery
[04:43] 06. Victoria's Secret
[03:57] 07. Champagne Bath
[05:18] 08. Broken
[05:14] 09. The Ruins Of My Life
[09:26] 10. Draw Me
[55:00]
Universal Music 067223-2
EAC Log
Код:
Exact Audio Copy V0.99 prebeta 5 from 4. May 2009
EAC extraction logfile from 21. February 2011, 12:32
Sonata Arctica / Winterheart's Guild
Used drive: Optiarc DVD RW AD-7220SAdapter: 3ID: 0
Read mode: Secure
Utilize accurate stream : Yes
Defeat audio cache: Yes
Make use of C2 pointers : No
Read offset correction: 6
Overread into Lead-In and Lead-Out: No
Fill up missing offset samples with silence : Yes
Delete leading and trailing silent blocks: No
Null samples used in CRC calculations: Yes
Used interface: Native Win32 interface for Win NT & 2000
Used output format : Internal WAV Routines
Sample format: 44.100 Hz; 16 Bit; Stereo
TOC of the extracted CD
Track |Start|Length| Start sector | End sector
---------------------------------------------------------
1|0:00.00 |5:37.62 |0|25336
2|5:37.62 |6:58.02 |25337|56688
3| 12:35.64 |4:37.13 |56689|77476
4| 17:13.02 |3:58.33 |77477|95359
5| 21:11.35 |5:08.52 |95360|118511
6| 26:20.12 |4:43.18 |118512|139754
7| 31:03.30 |3:57.50 |139755|157579
8| 35:01.05 |5:18.15 |157580|181444
9| 40:19.20 |5:14.60 |181445|205054
10| 45:34.05 |9:26.22 |205055|247526
Range status and errors
Selected range
Filename L:\SA\2003 - Winterheart's Guild\Sonata Arctica - Winterheart's Guild.wav
Peak level 98.8 %
Range quality 99.9 %
Test CRC 26ACD4DD
Copy CRC 26ACD4DD
Copy OK
No errors occurred
AccurateRip summary
Track1accurately ripped (confidence 15)[9E1E388A]
Track2accurately ripped (confidence 14)[D164E8D4]
Track3accurately ripped (confidence 14)[B4E26476]
Track4accurately ripped (confidence 14)[A66BE7FD]
Track5accurately ripped (confidence 14)[74AC7122]
Track6accurately ripped (confidence 14)[081CEE36]
Track7accurately ripped (confidence 14)[08711C13]
Track8accurately ripped (confidence 14)[A8B2B40E]
Track9accurately ripped (confidence 14)[E2B4D84F]
Track 10accurately ripped (confidence 12)[F91DF4F0]
All tracks accurately ripped
End of status report
2003 - Winterheart's Guild [Japan]

[05:37] 01. Abandoned, Pleased, Brainwashed, Exploited
[06:58] 02. Gravenimage
[04:37] 03. The Cage
[03:58] 04. Silver Tongue
[05:08] 05. The Misery
[04:43] 06. Victoria's Secret
[03:57] 07. Champagne Bath
[05:17] 08. Broken
[04:22] 09. The Rest Of The Sun Belongs To Me
[05:14] 10. The Ruins Of My Life
[05:05] 11. Draw Me
[55:00]
Avalon MICP-10351
EAC Log
Код:
Exact Audio Copy V0.99 prebeta 5 from 4. May 2009
EAC extraction logfile from 21. February 2011, 17:27
Sonata Arctica / Winterheart's Guild [Japan]
Used drive: Optiarc DVD RW AD-7220SAdapter: 3ID: 0
Read mode: Secure
Utilize accurate stream : Yes
Defeat audio cache: Yes
Make use of C2 pointers : No
Read offset correction: 6
Overread into Lead-In and Lead-Out: No
Fill up missing offset samples with silence : Yes
Delete leading and trailing silent blocks: No
Null samples used in CRC calculations: Yes
Used interface: Native Win32 interface for Win NT & 2000
Used output format : Internal WAV Routines
Sample format: 44.100 Hz; 16 Bit; Stereo
TOC of the extracted CD
Track |Start|Length| Start sector | End sector
---------------------------------------------------------
1|0:00.00 |5:37.62 |0|25336
2|5:37.62 |6:58.02 |25337|56688
3| 12:35.64 |4:37.13 |56689|77476
4| 17:13.02 |3:58.33 |77477|95359
5| 21:11.35 |5:08.52 |95360|118511
6| 26:20.12 |4:43.18 |118512|139754
7| 31:03.30 |3:57.50 |139755|157579
8| 35:01.05 |5:17.02 |157580|181356
9| 40:18.07 |4:22.08 |181357|201014
10| 44:40.15 |5:14.57 |201015|224621
11| 49:54.72 |5:05.30 |224622|247526
Range status and errors
Selected range
Filename L:\SA\2003 - Winterheart's Guild [Japan]\Sonata Arctica - Winterheart's Guild [Japan].wav
Peak level 98.8 %
Range quality 99.9 %
Test CRC EA21CD92
Copy CRC EA21CD92
Copy OK
No errors occurred
AccurateRip summary
Track1cannot be verified as accurate (confidence 6)[3F9175BB], AccurateRip returned [1756B33C]
Track2cannot be verified as accurate (confidence 6)[15E68F32], AccurateRip returned [C6561AEC]
Track3cannot be verified as accurate (confidence 6)[7E2C009C], AccurateRip returned [3BAF0F7D]
Track4cannot be verified as accurate (confidence 6)[CB83FA72], AccurateRip returned [90F117D6]
Track5cannot be verified as accurate (confidence 6)[51FFE4C2], AccurateRip returned [79A8FC45]
Track6cannot be verified as accurate (confidence 6)[C51CF9A0], AccurateRip returned [8DBC6087]
Track7cannot be verified as accurate (confidence 6)[33B8C274], AccurateRip returned [B99C08B0]
Track8cannot be verified as accurate (confidence 6)[20AA19DD], AccurateRip returned [706F109D]
Track9cannot be verified as accurate (confidence 6)[2C9F0F88], AccurateRip returned [627357AA]
Track 10cannot be verified as accurate (confidence 6)[07C6CF90], AccurateRip returned [CFD3D331]
Track 11cannot be verified as accurate (confidence 6)[CF3F03F7], AccurateRip returned [821AB08B]
No tracks could be verified as accurate
You may have a different pressing from the one(s) in the database
End of status report
2004 - Reckoning Night

[04:42] 01. Misplaced
[05:33] 02. Blinded No More
[05:26] 03. Ain't Your Fairytale
[03:21] 04. Reckoning Day, Reckoning Night...
[05:48] 05. Don't Say A Word
[04:44] 06. The Boy Who Wanted To Be A Real Puppet
[05:28] 07. My Selene
[04:36] 08. Wildfire
[08:47] 09. White Pearl, Black Oceans
[04:04] 10. Shamandalie
[02:51] 11. Jam [Hidden Track]
[55:26]
Nuclear Blast NB 1315-2
EAC Log
Код:
Exact Audio Copy V0.99 prebeta 5 from 4. May 2009
EAC extraction logfile from 21. February 2011, 10:37
Sonata Arctica / Reckoning Night
Used drive: Optiarc DVD RW AD-7220SAdapter: 3ID: 0
Read mode: Secure
Utilize accurate stream : Yes
Defeat audio cache: Yes
Make use of C2 pointers : No
Read offset correction: 6
Overread into Lead-In and Lead-Out: No
Fill up missing offset samples with silence : Yes
Delete leading and trailing silent blocks: No
Null samples used in CRC calculations: Yes
Used interface: Native Win32 interface for Win NT & 2000
Used output format : Internal WAV Routines
Sample format: 44.100 Hz; 16 Bit; Stereo
TOC of the extracted CD
Track |Start|Length| Start sector | End sector
---------------------------------------------------------
1|0:00.00 |4:42.47 |0|21196
2|4:42.47 |5:33.68 |21197|46239
3| 10:16.40 |5:26.15 |46240|70704
4| 15:42.55 |3:21.26 |70705|85805
5| 19:04.06 |5:48.74 |85806|111979
6| 24:53.05 |4:44.67 |111980|133346
7| 29:37.72 |5:28.42 |133347|157988
8| 35:06.39 |4:36.60 |157989|178748
9| 39:43.24 |8:47.13 |178749|218286
10| 48:30.37 |4:04.60 |218287|236646
11| 52:35.22 |2:51.36 |236647|249507
Range status and errors
Selected range
Filename L:\SA\2004 - Reckoning Night\Sonata Arctica - Reckoning Night.wav
Peak level 100.0 %
Range quality 100.0 %
Test CRC 3AA64587
Copy CRC 3AA64587
Copy OK
No errors occurred
AccurateRip summary
Track1accurately ripped (confidence 6)[2EAFB434]
Track2accurately ripped (confidence 6)[FFF0606C]
Track3accurately ripped (confidence 6)[C7BF7E97]
Track4accurately ripped (confidence 6)[F9D85E53]
Track5accurately ripped (confidence 6)[E3134026]
Track6accurately ripped (confidence 6)[C9B7F367]
Track7accurately ripped (confidence 6)[E77CB4B5]
Track8accurately ripped (confidence 6)[2EECB602]
Track9accurately ripped (confidence 6)[EF6E5C1C]
Track 10accurately ripped (confidence 6)[07BB8074]
Track 11accurately ripped (confidence 6)[5AA5F52A]
All tracks accurately ripped
End of status report
2004 - Reckoning Night [Japan]

[04:42] 01. Misplaced
[05:33] 02. Blinded No More
[05:26] 03. Ain't Your Fairytale
[03:21] 04. Reckoning Day, Reckoning Night...
[05:48] 05. Don't Say A Word
[04:44] 06. The Boy Who Wanted To Be A Real Puppet
[05:28] 07. My Selene
[04:36] 08. Wildfire
[08:47] 09. White Pearl, Black Oceans...
[04:04] 10. Shamandalie
[07:02] 11. Wrecking The Sphere
[02:51] 12. Jam [Hidden Track]
[1:02:29]
Avalon MICP-10466
EAC Log
Код:
Exact Audio Copy V0.99 prebeta 5 from 4. May 2009
EAC extraction logfile from 21. February 2011, 10:19
Sonata Arctica / Reckoning Night [Japan]
Used drive: Optiarc DVD RW AD-7220SAdapter: 3ID: 0
Read mode: Secure
Utilize accurate stream : Yes
Defeat audio cache: Yes
Make use of C2 pointers : No
Read offset correction: 6
Overread into Lead-In and Lead-Out: No
Fill up missing offset samples with silence : Yes
Delete leading and trailing silent blocks: No
Null samples used in CRC calculations: Yes
Used interface: Native Win32 interface for Win NT & 2000
Used output format : Internal WAV Routines
Sample format: 44.100 Hz; 16 Bit; Stereo
TOC of the extracted CD
Track |Start|Length| Start sector | End sector
---------------------------------------------------------
1|0:00.00 |4:42.47 |0|21196
2|4:42.47 |5:33.68 |21197|46239
3| 10:16.40 |5:26.15 |46240|70704
4| 15:42.55 |3:21.26 |70705|85805
5| 19:04.06 |5:48.74 |85806|111979
6| 24:53.05 |4:44.67 |111980|133346
7| 29:37.72 |5:28.42 |133347|157988
8| 35:06.39 |4:36.60 |157989|178748
9| 39:43.24 |8:47.13 |178749|218286
10| 48:30.37 |4:04.54 |218287|236640
11| 52:35.16 |7:02.24 |236641|268314
12| 59:37.40 |2:51.36 |268315|281175
Range status and errors
Selected range
Filename L:\SA\2004 - Reckoning Night [Japan]\Sonata Arctica - Reckoning Night [Japan].wav
Peak level 100.0 %
Range quality 99.9 %
Test CRC 9ED2D8F8
Copy CRC 9ED2D8F8
Copy OK
No errors occurred
AccurateRip summary
Track1accurately ripped (confidence 5)[9D550F24]
Track2accurately ripped (confidence 5)[BE5F8CB1]
Track3accurately ripped (confidence 5)[5568FF8D]
Track4accurately ripped (confidence 5)[A29C938C]
Track5accurately ripped (confidence 5)[BFA2FCBC]
Track6accurately ripped (confidence 5)[3F59E47F]
Track7accurately ripped (confidence 5)[ED6FD03B]
Track8accurately ripped (confidence 5)[F3E0A4FB]
Track9accurately ripped (confidence 5)[45D7FF73]
Track 10accurately ripped (confidence 5)[E57FCEFF]
Track 11accurately ripped (confidence 5)[FDE49A1A]
Track 12accurately ripped (confidence 4)[11C5C343]
All tracks accurately ripped
End of status report
2006 - For The Sake Of Revenge

[02:16] 01. Prelude For Reckoning
[04:43] 02. Misplaced
[05:16] 03. Blinded No More
[05:49] 04. FullMoon / White Pearl, Black Oceans
[05:03] 05. Victoria's Secret
[05:26] 06. Broken
[03:56] 07. 8th Commandment
[03:54] 08. Shamandalie
[04:17] 09. Kingdom For A Heart
[04:08] 10. Replica
[04:36] 11. My Land
[04:00] 12. Black Sheep
[02:23] 13. Gravenimage
[06:35] 14. Don't Say A Word
[07:26] 15. The Cage / Vodka / Hava Nagila - Sing Along
[1:09:54]
Nuclear Blast NB 1619-2
EAC Log
Код:
Exact Audio Copy V0.99 prebeta 5 from 4. May 2009
EAC extraction logfile from 15. December 2009, 12:30
Sonata Arctica / For The Sake Of Revenge [Europe]
Used drive: Optiarc DVD RW AD-7220SAdapter: 3ID: 0
Read mode: Secure
Utilize accurate stream : Yes
Defeat audio cache: Yes
Make use of C2 pointers : No
Read offset correction: 6
Overread into Lead-In and Lead-Out: No
Fill up missing offset samples with silence : Yes
Delete leading and trailing silent blocks: No
Null samples used in CRC calculations: Yes
Used interface: Installed external ASPI interface
Used output format : Internal WAV Routines
Sample format: 44.100 Hz; 16 Bit; Stereo
TOC of the extracted CD
Track |Start|Length| Start sector | End sector
---------------------------------------------------------
1|0:00.00 |2:16.48 |0|10247
2|2:16.48 |4:43.64 |10248|31536
3|7:00.37 |5:16.51 |31537|55287
4| 12:17.13 |5:49.11 |55288|81473
5| 18:06.24 |5:03.24 |81474|104222
6| 23:09.48 |5:26.37 |104223|128709
7| 28:36.10 |3:56.19 |128710|146428
8| 32:32.29 |3:54.03 |146429|163981
9| 36:26.32 |4:17.62 |163982|183318
10| 40:44.19 |4:08.27 |183319|201945
11| 44:52.46 |4:36.14 |201946|222659
12| 49:28.60 |4:00.47 |222660|240706
13| 53:29.32 |2:23.11 |240707|251442
14| 55:52.43 |6:35.46 |251443|281113
15| 62:28.14 |7:26.45 |281114|314608
Range status and errors
Selected range
Filename D:\WORK\EAC\Sonata Arctica - For The Sake Of Revenge [Europe].wav
Peak level 98.3 %
Range quality 100.0 %
Test CRC 722F61F8
Copy CRC 722F61F8
Copy OK
No errors occurred
AccurateRip summary
Track1accurately ripped (confidence 16)[BA9220DE]
Track2accurately ripped (confidence 16)[7E90AEC6]
Track3accurately ripped (confidence 16)[51ABC590]
Track4accurately ripped (confidence 15)[9ABA8EA2]
Track5accurately ripped (confidence 16)[F38F2EA9]
Track6accurately ripped (confidence 16)[75026FA5]
Track7accurately ripped (confidence 16)[614A2473]
Track8accurately ripped (confidence 16)[385E7AC2]
Track9accurately ripped (confidence 16)[D41C0F3E]
Track 10accurately ripped (confidence 16)[7F7110FB]
Track 11accurately ripped (confidence 16)[C0F3BA27]
Track 12accurately ripped (confidence 16)[FBA912C0]
Track 13accurately ripped (confidence 16)[ECFF6F99]
Track 14accurately ripped (confidence 16)[C1739EFE]
Track 15accurately ripped (confidence 16)[24F578DF]
All tracks accurately ripped
End of status report
2006 - For The Sake Of Revenge [Japan]

[02:16] 01. Prelude For Reckoning
[04:43] 02. Misplaced
[05:16] 03. Blinded No More
[05:49] 04. FullMoon / Extract From 'White Pearl, Black Oceans'
[05:03] 05. Victoria's Secret
[05:26] 06. Broken
[03:56] 07. 8th Commandment
[03:54] 08. Shamandalie
[04:17] 09. Kingdom For A Heart
[04:08] 10. Replica
[04:36] 11. My Land
[04:00] 12. Black Sheep
[02:23] 13. Gravenimage
[06:35] 14. Don't Say A Word
[07:30] 15. The Cage / Vodka / Hava Nagila - Sing Along
[06:30] 16. San Sebastian
[1:16:29]
Avalon MICP-10580
EAC Log
Код:
Exact Audio Copy V0.99 prebeta 5 from 4. May 2009
EAC extraction logfile from 21. February 2011, 14:17
Sonata Arctica / For The Sake Of Revenge [Japan]
Used drive: Optiarc DVD RW AD-7220SAdapter: 3ID: 0
Read mode: Secure
Utilize accurate stream : Yes
Defeat audio cache: Yes
Make use of C2 pointers : No
Read offset correction: 6
Overread into Lead-In and Lead-Out: No
Fill up missing offset samples with silence : Yes
Delete leading and trailing silent blocks: No
Null samples used in CRC calculations: Yes
Used interface: Native Win32 interface for Win NT & 2000
Used output format : Internal WAV Routines
Sample format: 44.100 Hz; 16 Bit; Stereo
TOC of the extracted CD
Track |Start|Length| Start sector | End sector
---------------------------------------------------------
1|0:00.00 |2:16.48 |0|10247
2|2:16.48 |4:43.64 |10248|31536
3|7:00.37 |5:16.51 |31537|55287
4| 12:17.13 |5:49.11 |55288|81473
5| 18:06.24 |5:03.22 |81474|104220
6| 23:09.46 |5:26.39 |104221|128709
7| 28:36.10 |3:56.19 |128710|146428
8| 32:32.29 |3:54.03 |146429|163981
9| 36:26.32 |4:17.62 |163982|183318
10| 40:44.19 |4:08.27 |183319|201945
11| 44:52.46 |4:36.14 |201946|222659
12| 49:28.60 |4:00.47 |222660|240706
13| 53:29.32 |2:23.11 |240707|251442
14| 55:52.43 |6:35.46 |251443|281113
15| 62:28.14 |7:30.30 |281114|314893
16| 69:58.44 |6:30.69 |314894|344212
Range status and errors
Selected range
Filename L:\SA\2006 - For The Sake Of Revenge [Japan]\Sonata Arctica - For The Sake Of Revenge [Japan].wav
Peak level 100.0 %
Range quality 100.0 %
Test CRC 04932B8B
Copy CRC 04932B8B
Copy OK
No errors occurred
AccurateRip summary
Track1not present in database
Track2not present in database
Track3not present in database
Track4not present in database
Track5not present in database
Track6not present in database
Track7not present in database
Track8not present in database
Track9not present in database
Track 10not present in database
Track 11not present in database
Track 12not present in database
Track 13not present in database
Track 14not present in database
Track 15not present in database
Track 16not present in database
None of the tracks are present in the AccurateRip database
End of status report
2007 - Unia

[05:03] 01. In Black And White
[04:24] 02. Paid In Full
[03:23] 03. For The Sake Of Revenge
[05:58] 04. It Won't Fade
[05:14] 05. Under Your Tree
[06:16] 06. Caleb
[04:08] 07. The Vice
[06:13] 08. My Dream's But A Drop Of Fuel For A Nightmare
[04:21] 09. The Harvest
[05:03] 10. To Create A Warlike Feel
[02:57] 11. The Worlds Forgotten, The Words Forbidden
[05:08] 12. Fly With The Black Swan
[05:30] 13. Good Enough Is Good Enough
[1:03:43]
Irond CD 07-1305
EAC Log
Код:
Exact Audio Copy V0.99 prebeta 5 from 4. May 2009
EAC extraction logfile from 20. February 2011, 12:05
Sonata Arctica / Unia
Used drive: Optiarc DVD RW AD-7220SAdapter: 3ID: 0
Read mode: Secure
Utilize accurate stream : Yes
Defeat audio cache: Yes
Make use of C2 pointers : No
Read offset correction: 6
Overread into Lead-In and Lead-Out: No
Fill up missing offset samples with silence : Yes
Delete leading and trailing silent blocks: No
Null samples used in CRC calculations: Yes
Used interface: Native Win32 interface for Win NT & 2000
Used output format : Internal WAV Routines
Sample format: 44.100 Hz; 16 Bit; Stereo
TOC of the extracted CD
Track |Start|Length| Start sector | End sector
---------------------------------------------------------
1|0:00.00 |5:03.73 |0|22797
2|5:03.73 |4:24.23 |22798|42620
3|9:28.21 |3:23.00 |42621|57845
4| 12:51.21 |5:58.34 |57846|84729
5| 18:49.55 |5:14.09 |84730|108288
6| 24:03.64 |6:16.47 |108289|136535
7| 30:20.36 |4:08.61 |136536|155196
8| 34:29.22 |6:13.22 |155197|183193
9| 40:42.44 |4:21.56 |183194|202824
10| 45:04.25 |5:03.43 |202825|225592
11| 50:07.68 |2:57.19 |225593|238886
12| 53:05.12 |5:08.28 |238887|262014
13| 58:13.40 |5:30.25 |262015|286789
Range status and errors
Selected range
Filename L:\SA\2007 - Unia\Sonata Arctica - Unia.wav
Peak level 98.8 %
Range quality 100.0 %
Test CRC E9D8EF62
Copy CRC E9D8EF62
Copy OK
No errors occurred
AccurateRip summary
Track1accurately ripped (confidence 10)[1DDCEB40]
Track2accurately ripped (confidence 10)[D23DF87D]
Track3accurately ripped (confidence 10)[E76EFBBC]
Track4accurately ripped (confidence 10)[A6CC7C1A]
Track5accurately ripped (confidence 10)[10F284C3]
Track6accurately ripped (confidence 10)[B19A1512]
Track7accurately ripped (confidence 10)[61F4B4CE]
Track8accurately ripped (confidence 10)[21488170]
Track9accurately ripped (confidence 10)[AA51BFAE]
Track 10accurately ripped (confidence 10)[6611120D]
Track 11accurately ripped (confidence 10)[49277FB2]
Track 12accurately ripped (confidence 10)[3A0EA62A]
Track 13accurately ripped (confidence 10)[0B62AC99]
All tracks accurately ripped
End of status report
2007 - Unia [Japan]

[05:03] 01. In Black And White
[04:24] 02. Paid In Full
[03:23] 03. For The Sake Of Revenge
[05:58] 04. It Won't Fade
[05:14] 05. Under Your Tree
[06:16] 06. Caleb
[04:08] 07. The Vice
[06:13] 08. My Dream's But A Drop Of Fuel For A Nightmare
[04:18] 09. The Harvest
[02:57] 10. The Worlds Forgotten, The Words Forbidden
[05:08] 11. Fly With The Black Swan
[04:39] 12. Good Enough Is Good Enough
[04:50] 13. They Follow
[04:06] 14. Out In The Fields
[07:11] 15. My Dream's But A Drop Of Fuel For A Nightmare (Instrumental)
[1:13:54]
Avalon MICP-10658
EAC Log
Код:
Exact Audio Copy V0.99 prebeta 5 from 4. May 2009
EAC extraction logfile from 20. February 2011, 12:32
Sonata Arctica / Unia [Japan]
Used drive: Optiarc DVD RW AD-7220SAdapter: 3ID: 0
Read mode: Secure
Utilize accurate stream : Yes
Defeat audio cache: Yes
Make use of C2 pointers : No
Read offset correction: 6
Overread into Lead-In and Lead-Out: No
Fill up missing offset samples with silence : Yes
Delete leading and trailing silent blocks: No
Null samples used in CRC calculations: Yes
Used interface: Native Win32 interface for Win NT & 2000
Used output format : Internal WAV Routines
Sample format: 44.100 Hz; 16 Bit; Stereo
TOC of the extracted CD
Track |Start|Length| Start sector | End sector
---------------------------------------------------------
1|0:00.00 |5:03.62 |0|22786
2|5:03.62 |4:24.30 |22787|42616
3|9:28.17 |3:23.00 |42617|57841
4| 12:51.17 |5:58.34 |57842|84725
5| 18:49.51 |5:14.09 |84726|108284
6| 24:03.60 |6:16.47 |108285|136531
7| 30:20.32 |4:08.61 |136532|155192
8| 34:29.18 |6:13.22 |155193|183189
9| 40:42.40 |4:18.69 |183190|202608
10| 45:01.34 |2:57.21 |202609|215904
11| 47:58.55 |5:08.27 |215905|239031
12| 53:07.07 |4:39.09 |239032|259965
13| 57:46.16 |4:50.71 |259966|281786
14| 62:37.12 |4:06.36 |281787|300272
15| 66:43.48 |7:11.24 |300273|332621
Range status and errors
Selected range
Filename L:\SA\2007 - Unia [Japan]\Sonata Arctica - Unia [Japan].wav
Peak level 98.4 %
Range quality 100.0 %
Test CRC 704E5F82
Copy CRC 704E5F82
Copy OK
No errors occurred
AccurateRip summary
Track1accurately ripped (confidence 2)[860E85C8]
Track2accurately ripped (confidence 2)[7095075F]
Track3accurately ripped (confidence 2)[FA5B7526]
Track4accurately ripped (confidence 2)[91A8CD6E]
Track5accurately ripped (confidence 2)[B1411170]
Track6accurately ripped (confidence 2)[7CDFFF73]
Track7accurately ripped (confidence 2)[32606834]
Track8accurately ripped (confidence 2)[8D313750]
Track9accurately ripped (confidence 2)[4AE2756C]
Track 10accurately ripped (confidence 2)[F9B269A1]
Track 11accurately ripped (confidence 2)[F03168E0]
Track 12accurately ripped (confidence 2)[DABAD1A2]
Track 13accurately ripped (confidence 2)[3E1A9191]
Track 14accurately ripped (confidence 2)[D7565AD8]
Track 15accurately ripped (confidence 2)[318A6DC3]
All tracks accurately ripped
End of status report
2008 - Ecliptica (Remastered)

[04:05] 01. Blank File
[04:37] 02. My Land
[03:42] 03. 8th Commandment
[04:55] 04. Replica
[03:51] 05. Kingdom For A Heart
[05:08] 06. FullMoon
[06:00] 07. Letter To Dana
[03:43] 08. UnOpened
[03:36] 09. Picturing The Past
[07:44] 10. Destruction Preventer
[04:32] 11. Mary-Lou
[04:38] 12. Letter To Dana (Returned To Sender)
[56:37]
Universal Music 178525-3
EAC Log
Код:
Exact Audio Copy V0.99 prebeta 5 from 4. May 2009
EAC extraction logfile from 18. February 2011, 15:33
Sonata Arctica / Ecliptica (Remastered)
Used drive: Optiarc DVD RW AD-7220SAdapter: 3ID: 0
Read mode: Secure
Utilize accurate stream : Yes
Defeat audio cache: Yes
Make use of C2 pointers : No
Read offset correction: 6
Overread into Lead-In and Lead-Out: No
Fill up missing offset samples with silence : Yes
Delete leading and trailing silent blocks: No
Null samples used in CRC calculations: Yes
Used interface: Native Win32 interface for Win NT & 2000
Used output format : Internal WAV Routines
Sample format: 44.100 Hz; 16 Bit; Stereo
TOC of the extracted CD
Track |Start|Length| Start sector | End sector
---------------------------------------------------------
1|0:00.00 |4:05.63 |0|18437
2|4:05.63 |4:37.18 |18438|39230
3|8:43.06 |3:42.00 |39231|55880
4| 12:25.06 |4:55.02 |55881|78007
5| 17:20.08 |3:51.67 |78008|95399
6| 21:12.00 |5:08.03 |95400|118502
7| 26:20.03 |6:00.59 |118503|145561
8| 32:20.62 |3:43.12 |145562|162298
9| 36:03.74 |3:36.46 |162299|178544
10| 39:40.45 |7:44.60 |178545|213404
11| 47:25.30 |4:32.62 |213405|233866
12| 51:58.17 |4:38.62 |233867|254778
Range status and errors
Selected range
Filename L:\SA\2008 - Ecliptica (Remastered)\Sonata Arctica - Ecliptica (Remastered).wav
Peak level 99.5 %
Range quality 100.0 %
Test CRC 50B12E6A
Copy CRC 50B12E6A
Copy OK
No errors occurred
AccurateRip summary
Track1accurately ripped (confidence 16)[8F4E030A]
Track2accurately ripped (confidence 16)[F71753CC]
Track3accurately ripped (confidence 16)[8D4012CE]
Track4accurately ripped (confidence 16)[A425E41D]
Track5accurately ripped (confidence 16)[9B1815E5]
Track6accurately ripped (confidence 16)[374D3C62]
Track7accurately ripped (confidence 16)[EE04D4DB]
Track8accurately ripped (confidence 16)[FB3B6ECA]
Track9accurately ripped (confidence 16)[BFC7E642]
Track 10accurately ripped (confidence 16)[FC994424]
Track 11accurately ripped (confidence 16)[74515376]
Track 12accurately ripped (confidence 16)[5F215F57]
All tracks accurately ripped
End of status report
2008 - Ecliptica (Remastered) [Japan]

[04:05] 01. Blank File
[04:37] 02. My Land
[03:42] 03. 8th Commandment
[04:55] 04. Replica
[03:51] 05. Kingdom For A Heart
[05:08] 06. FullMoon
[06:00] 07. Letter To Dana
[03:43] 08. UnOpened
[03:36] 09. Picturing The Past
[07:44] 10. Destruction Preventer
[04:32] 11. Mary-Lou
[04:38] 12. Letter To Dana (Returned To Sender)
[56:37]
Avalon MICP-10768
EAC Log
Код:
Exact Audio Copy V0.99 prebeta 5 from 4. May 2009
EAC extraction logfile from 18. February 2011, 15:15
Sonata Arctica / Ecliptica (Remastered) [Japan]
Used drive: Optiarc DVD RW AD-7220SAdapter: 3ID: 0
Read mode: Secure
Utilize accurate stream : Yes
Defeat audio cache: Yes
Make use of C2 pointers : No
Read offset correction: 6
Overread into Lead-In and Lead-Out: No
Fill up missing offset samples with silence : Yes
Delete leading and trailing silent blocks: No
Null samples used in CRC calculations: Yes
Used interface: Native Win32 interface for Win NT & 2000
Used output format : Internal WAV Routines
Sample format: 44.100 Hz; 16 Bit; Stereo
TOC of the extracted CD
Track |Start|Length| Start sector | End sector
---------------------------------------------------------
1|0:00.00 |4:05.63 |0|18437
2|4:05.63 |4:37.18 |18438|39230
3|8:43.06 |3:42.00 |39231|55880
4| 12:25.06 |4:55.02 |55881|78007
5| 17:20.08 |3:51.67 |78008|95399
6| 21:12.00 |5:08.03 |95400|118502
7| 26:20.03 |6:00.59 |118503|145561
8| 32:20.62 |3:43.12 |145562|162298
9| 36:03.74 |3:36.46 |162299|178544
10| 39:40.45 |7:44.60 |178545|213404
11| 47:25.30 |4:32.62 |213405|233866
12| 51:58.17 |4:38.62 |233867|254778
Range status and errors
Selected range
Filename L:\SA\2008 - Ecliptica (Remastered) [Japan]\Sonata Arctica - Ecliptica (Remastered) [Japan].wav
Peak level 99.5 %
Range quality 100.0 %
Test CRC 6F0CAE18
Copy CRC 6F0CAE18
Copy OK
No errors occurred
AccurateRip summary
Track1cannot be verified as accurate (confidence 16)[1E260BFA], AccurateRip returned [8F4E030A]
Track2cannot be verified as accurate (confidence 16)[FAA5CCC4], AccurateRip returned [F71753CC]
Track3cannot be verified as accurate (confidence 16)[F1D6A6DE], AccurateRip returned [8D4012CE]
Track4cannot be verified as accurate (confidence 16)[995F2A8B], AccurateRip returned [A425E41D]
Track5cannot be verified as accurate (confidence 16)[255E779B], AccurateRip returned [9B1815E5]
Track6cannot be verified as accurate (confidence 16)[607C7D32], AccurateRip returned [374D3C62]
Track7cannot be verified as accurate (confidence 16)[98848C60], AccurateRip returned [EE04D4DB]
Track8cannot be verified as accurate (confidence 16)[40BA3080], AccurateRip returned [FB3B6ECA]
Track9cannot be verified as accurate (confidence 16)[3D695C30], AccurateRip returned [BFC7E642]
Track 10cannot be verified as accurate (confidence 16)[940D1E3F], AccurateRip returned [FC994424]
Track 11cannot be verified as accurate (confidence 16)[46855F36], AccurateRip returned [74515376]
Track 12cannot be verified as accurate (confidence 16)[01919271], AccurateRip returned [5F215F57]
No tracks could be verified as accurate
You may have a different pressing from the one(s) in the database
End of status report
2008 - Silence (Remastered)

[01:17] 01. ...Of Silence
[03:51] 02. Weballergy
[05:18] 03. False News Travel Fast
[07:01] 04. The End Of This Chapter
[03:42] 05. Black Sheep
[04:24] 06. Land Of The Free
[05:13] 07. Last Drop Falls
[04:37] 08. San Sebastian (Revisited)
[03:51] 09. Sing In Silence
[01:32] 10. Revontulet
[05:20] 11. Tallulah
[04:18] 12. Wolf And Raven
[03:52] 13. Respect The Wilderness
[11:36] 14. The Power Of One
[03:31] 15. PeaceMaker
[04:25] 16. Wolf & Raven (Remake 2008)
[1:13:55]
Universal Music 178525-4
EAC Log
Код:
Exact Audio Copy V0.99 prebeta 5 from 4. May 2009
EAC extraction logfile from 18. February 2011, 10:42
Sonata Arctica / Silence (Remastered)
Used drive: Optiarc DVD RW AD-7220SAdapter: 3ID: 0
Read mode: Secure
Utilize accurate stream : Yes
Defeat audio cache: Yes
Make use of C2 pointers : No
Read offset correction: 6
Overread into Lead-In and Lead-Out: No
Fill up missing offset samples with silence : Yes
Delete leading and trailing silent blocks: No
Null samples used in CRC calculations: Yes
Used interface: Native Win32 interface for Win NT & 2000
Used output format : Internal WAV Routines
Sample format: 44.100 Hz; 16 Bit; Stereo
TOC of the extracted CD
Track |Start|Length| Start sector | End sector
---------------------------------------------------------
1|0:00.00 |1:17.63 |0|5837
2|1:17.63 |3:51.38 |5838|23200
3|5:09.26 |5:18.33 |23201|47083
4| 10:27.59 |7:01.36 |47084|78694
5| 17:29.20 |3:42.51 |78695|95395
6| 21:11.71 |4:24.11 |95396|115206
7| 25:36.07 |5:13.63 |115207|138744
8| 30:49.70 |4:37.14 |138745|159533
9| 35:27.09 |3:51.63 |159534|176921
10| 39:18.72 |1:32.23 |176922|183844
11| 40:51.20 |5:20.35 |183845|207879
12| 46:11.55 |4:18.13 |207880|227242
13| 50:29.68 |3:52.23 |227243|244665
14| 54:22.16 | 11:36.45 |244666|296910
15| 65:58.61 |3:31.32 |296911|312767
16| 69:30.18 |4:25.37 |312768|332679
Range status and errors
Selected range
Filename L:\SA\2008 - Silence (Remastered)\Sonata Arctica - Silence (Remastered).wav
Peak level 99.5 %
Range quality 100.0 %
Test CRC 2AFDAA6A
Copy CRC 2AFDAA6A
Copy OK
No errors occurred
AccurateRip summary
Track1accurately ripped (confidence 8)[BC4FDAE2]
Track2accurately ripped (confidence 8)[41DA3072]
Track3accurately ripped (confidence 8)[F4012BDE]
Track4accurately ripped (confidence 8)[2D37605F]
Track5accurately ripped (confidence 8)[464C6649]
Track6accurately ripped (confidence 8)[EE80F17D]
Track7accurately ripped (confidence 8)[5783A18E]
Track8accurately ripped (confidence 8)[923D50F6]
Track9accurately ripped (confidence 8)[5EA5B8B7]
Track 10accurately ripped (confidence 8)[31491804]
Track 11accurately ripped (confidence 8)[0C6D9FE1]
Track 12accurately ripped (confidence 8)[41094B13]
Track 13accurately ripped (confidence 8)[76DBCEDB]
Track 14accurately ripped (confidence 8)[A22DB40D]
Track 15accurately ripped (confidence 8)[F9AD1560]
Track 16accurately ripped (confidence 8)[2EAF27F2]
All tracks accurately ripped
End of status report
2008 - Silence (Remastered) [Japan]

[01:17] 01. ...Of Silence
[03:51] 02. Weballergy
[05:18] 03. False News Travel Fast
[07:01] 04. The End Of This Chapter
[03:42] 05. Black Sheep
[04:24] 06. Land Of The Free
[05:13] 07. Last Drop Falls
[04:37] 08. San Sebastian (Revisited)
[03:51] 09. Sing In Silence
[01:32] 10. Revontulet
[05:20] 11. Tallulah
[04:18] 12. Wolf And Raven
[03:52] 13. Respect The Wilderness
[11:36] 14. The Power Of One
[03:31] 15. PeaceMaker
[04:25] 16. Wolf & Raven (Remake 2008)
[1:13:55]
Avalon MICP-10769
EAC Log
Код:
Exact Audio Copy V0.99 prebeta 5 from 4. May 2009
EAC extraction logfile from 18. February 2011, 11:17
Sonata Arctica / Silence (Remastered) [Japan]
Used drive: Optiarc DVD RW AD-7220SAdapter: 3ID: 0
Read mode: Secure
Utilize accurate stream : Yes
Defeat audio cache: Yes
Make use of C2 pointers : No
Read offset correction: 6
Overread into Lead-In and Lead-Out: No
Fill up missing offset samples with silence : Yes
Delete leading and trailing silent blocks: No
Null samples used in CRC calculations: Yes
Used interface: Native Win32 interface for Win NT & 2000
Used output format : Internal WAV Routines
Sample format: 44.100 Hz; 16 Bit; Stereo
TOC of the extracted CD
Track |Start|Length| Start sector | End sector
---------------------------------------------------------
1|0:00.00 |1:17.63 |0|5837
2|1:17.63 |3:51.38 |5838|23200
3|5:09.26 |5:18.33 |23201|47083
4| 10:27.59 |7:01.36 |47084|78694
5| 17:29.20 |3:42.51 |78695|95395
6| 21:11.71 |4:24.11 |95396|115206
7| 25:36.07 |5:13.63 |115207|138744
8| 30:49.70 |4:37.14 |138745|159533
9| 35:27.09 |3:51.63 |159534|176921
10| 39:18.72 |1:32.23 |176922|183844
11| 40:51.20 |5:20.35 |183845|207879
12| 46:11.55 |4:18.13 |207880|227242
13| 50:29.68 |3:52.23 |227243|244665
14| 54:22.16 | 11:36.45 |244666|296910
15| 65:58.61 |3:31.32 |296911|312767
16| 69:30.18 |4:25.37 |312768|332679
Range status and errors
Selected range
Filename L:\SA\2008 - Silence (Remastered) [Japan]\Sonata Arctica - Silence (Remastered) [Japan].wav
Peak level 99.5 %
Range quality 100.0 %
Test CRC 986EEAE7
Copy CRC 986EEAE7
Copy OK
No errors occurred
AccurateRip summary
Track1cannot be verified as accurate (confidence 8)[53C9DD9D], AccurateRip returned [BC4FDAE2]
Track2cannot be verified as accurate (confidence 8)[C954E767], AccurateRip returned [41DA3072]
Track3cannot be verified as accurate (confidence 8)[AB8D902D], AccurateRip returned [F4012BDE]
Track4cannot be verified as accurate (confidence 8)[FCE339BC], AccurateRip returned [2D37605F]
Track5cannot be verified as accurate (confidence 8)[4283BB49], AccurateRip returned [464C6649]
Track6cannot be verified as accurate (confidence 8)[45344CE5], AccurateRip returned [EE80F17D]
Track7cannot be verified as accurate (confidence 8)[E342E5F6], AccurateRip returned [5783A18E]
Track8cannot be verified as accurate (confidence 8)[47483096], AccurateRip returned [923D50F6]
Track9cannot be verified as accurate (confidence 8)[9F462033], AccurateRip returned [5EA5B8B7]
Track 10cannot be verified as accurate (confidence 8)[12C44100], AccurateRip returned [31491804]
Track 11cannot be verified as accurate (confidence 8)[77AA56BB], AccurateRip returned [0C6D9FE1]
Track 12cannot be verified as accurate (confidence 8)[27420715], AccurateRip returned [41094B13]
Track 13cannot be verified as accurate (confidence 8)[A30E3D14], AccurateRip returned [76DBCEDB]
Track 14cannot be verified as accurate (confidence 8)[77A85BEC], AccurateRip returned [A22DB40D]
Track 15cannot be verified as accurate (confidence 8)[52336400], AccurateRip returned [F9AD1560]
Track 16cannot be verified as accurate (confidence 8)[9641999A], AccurateRip returned [2EAF27F2]
No tracks could be verified as accurate
You may have a different pressing from the one(s) in the database
End of status report
2009 - The Days Of Grays (2CD)

[03:06] 01. Everything Fades To Gray (Instrumental)
[07:58] 02. Deathaura
[05:40] 03. The Last Amazing Grays
[04:08] 04. Flag In The Ground
[03:55] 05. Breathing
[04:23] 06. Zeroes
[06:14] 07. The Dead Skin
[05:59] 08. Juliet
[04:33] 09. No Dream Can Heal A Broken Heart
[03:49] 10. As If The World Wasn't Ending
[05:03] 11. The Truth Is Out There
[04:32] 12. Everything Fades To Gray (Full Version)
[05:21] 13. In The Dark
[1:04:46]
Orchestral Versions
[07:56] 01. Deathaura
[05:10] 02. The Last Amazing Grays
[03:55] 03. Flag In The Ground
[06:02] 04. Juliet
[03:56] 05. As If The World Wasn't Ending
[05:06] 06. The Truth Is Out Of There
[05:22] 07. In The Dark
[37:29]
Nuclear Blast NB 2379-0
EAC Log CD1
Код:
Exact Audio Copy V0.99 prebeta 5 from 4. May 2009
EAC extraction logfile from 22. February 2011, 15:29
Sonata Arctica / The Days Of Grays CD1
Used drive: Optiarc DVD RW AD-7220SAdapter: 3ID: 0
Read mode: Secure
Utilize accurate stream : Yes
Defeat audio cache: Yes
Make use of C2 pointers : No
Read offset correction: 6
Overread into Lead-In and Lead-Out: No
Fill up missing offset samples with silence : Yes
Delete leading and trailing silent blocks: No
Null samples used in CRC calculations: Yes
Used interface: Native Win32 interface for Win NT & 2000
Used output format : Internal WAV Routines
Sample format: 44.100 Hz; 16 Bit; Stereo
TOC of the extracted CD
Track |Start|Length| Start sector | End sector
---------------------------------------------------------
1|0:00.00 |3:06.49 |0|13998
2|3:06.49 |7:58.52 |13999|49900
3| 11:05.26 |5:40.20 |49901|75420
4| 16:45.46 |4:08.63 |75421|94083
5| 20:54.34 |3:55.23 |94084|111731
6| 24:49.57 |4:23.54 |111732|131510
7| 29:13.36 |6:14.68 |131511|159628
8| 35:28.29 |5:59.08 |159629|186561
9| 41:27.37 |4:33.00 |186562|207036
10| 46:00.37 |3:49.15 |207037|224226
11| 49:49.52 |5:03.41 |224227|246992
12| 54:53.18 |4:32.10 |246993|267402
13| 59:25.28 |5:21.43 |267403|291520
Range status and errors
Selected range
Filename L:\SA\2009 - The Days Of Grays\Sonata Arctica - The Days Of Grays CD1.wav
Peak level 97.7 %
Range quality 100.0 %
Test CRC 37D57BFB
Copy CRC 37D57BFB
Copy OK
No errors occurred
AccurateRip summary
Track1accurately ripped (confidence 38)[2A706838]
Track2accurately ripped (confidence 37)[2BB11F6E]
Track3accurately ripped (confidence 37)[5CAE1A68]
Track4accurately ripped (confidence 37)[7BB65922]
Track5accurately ripped (confidence 38)[D026FAE9]
Track6accurately ripped (confidence 38)[4EF3AEFB]
Track7accurately ripped (confidence 38)[00BD95DC]
Track8accurately ripped (confidence 37)[0C79E6B6]
Track9accurately ripped (confidence 38)[FC1AC81D]
Track 10accurately ripped (confidence 37)[49258634]
Track 11accurately ripped (confidence 37)[E61DB6F4]
Track 12accurately ripped (confidence 38)[E85A61A1]
Track 13accurately ripped (confidence 37)[469E376F]
All tracks accurately ripped
End of status report
EAC Log CD2
Код:
Exact Audio Copy V0.99 prebeta 5 from 4. May 2009
EAC extraction logfile from 22. February 2011, 15:43
Sonata Arctica / The Days Of Grays CD2
Used drive: Optiarc DVD RW AD-7220SAdapter: 3ID: 0
Read mode: Secure
Utilize accurate stream : Yes
Defeat audio cache: Yes
Make use of C2 pointers : No
Read offset correction: 6
Overread into Lead-In and Lead-Out: No
Fill up missing offset samples with silence : Yes
Delete leading and trailing silent blocks: No
Null samples used in CRC calculations: Yes
Used interface: Native Win32 interface for Win NT & 2000
Used output format : Internal WAV Routines
Sample format: 44.100 Hz; 16 Bit; Stereo
TOC of the extracted CD
Track |Start|Length| Start sector | End sector
---------------------------------------------------------
1|0:00.00 |7:56.47 |0|35746
2|7:56.47 |5:10.02 |35747|58998
3| 13:06.49 |3:55.37 |58999|76660
4| 17:02.11 |6:02.24 |76661|103834
5| 23:04.35 |3:56.21 |103835|121555
6| 27:00.56 |5:06.53 |121556|144558
7| 32:07.34 |5:22.27 |144559|168735
Range status and errors
Selected range
Filename L:\SA\2009 - The Days Of Grays\Sonata Arctica - The Days Of Grays CD2.wav
Peak level 100.0 %
Range quality 100.0 %
Test CRC 99AA4B70
Copy CRC 99AA4B70
Copy OK
No errors occurred
AccurateRip summary
Track1accurately ripped (confidence 34)[A4C0F563]
Track2accurately ripped (confidence 34)[C7DEA855]
Track3accurately ripped (confidence 33)[2C1CB672]
Track4accurately ripped (confidence 33)[F25D78DC]
Track5accurately ripped (confidence 33)[9A3883E6]
Track6accurately ripped (confidence 33)[3EDCAEBE]
Track7accurately ripped (confidence 33)[97EAA956]
All tracks accurately ripped
End of status report
2009 - The Days Of Grays (2CD) [Japan]

[03:06] 01. Everything Fades To Gray (Instrumental)
[07:58] 02. Deathaura
[05:40] 03. The Last Amazing Grays
[04:08] 04. Flag In The Ground
[03:55] 05. Breathing
[04:23] 06. Zeroes
[06:14] 07. The Dead Skin
[05:59] 08. Juliet
[04:33] 09. No Dream Can Heal A Broken Heart
[03:49] 10. As If The World Wasn't Ending
[05:03] 11. The Truth Is Out There
[04:35] 12. Everything Fades To Gray (Full Version)
[03:57] 13. Nothing More
[04:42] 14. In My Eyes You're A Giant
[1:08:09]
Official bootleg live around Europe 2008
[04:26] 01. Paid In Full
[05:56] 02. Black Sheep
[04:06] 03. Draw Me
[06:22] 04. It Won't Fade
[04:38] 05. Replica
[06:08] 06. Don't Say A Word
[31:39]
Avalon MICP-90045
EAC Log CD1
Код:
Exact Audio Copy V0.99 prebeta 5 from 4. May 2009
EAC extraction logfile from 22. February 2011, 14:53
Sonata Arctica / The Days Of Grays [Japan] CD1
Used drive: Optiarc DVD RW AD-7220SAdapter: 3ID: 0
Read mode: Secure
Utilize accurate stream : Yes
Defeat audio cache: Yes
Make use of C2 pointers : No
Read offset correction: 6
Overread into Lead-In and Lead-Out: No
Fill up missing offset samples with silence : Yes
Delete leading and trailing silent blocks: No
Null samples used in CRC calculations: Yes
Used interface: Native Win32 interface for Win NT & 2000
Used output format : Internal WAV Routines
Sample format: 44.100 Hz; 16 Bit; Stereo
TOC of the extracted CD
Track |Start|Length| Start sector | End sector
---------------------------------------------------------
1|0:00.00 |3:06.49 |0|13998
2|3:06.49 |7:58.52 |13999|49900
3| 11:05.26 |5:40.20 |49901|75420
4| 16:45.46 |4:08.63 |75421|94083
5| 20:54.34 |3:55.23 |94084|111731
6| 24:49.57 |4:23.54 |111732|131510
7| 29:13.36 |6:14.68 |131511|159628
8| 35:28.29 |5:59.08 |159629|186561
9| 41:27.37 |4:33.00 |186562|207036
10| 46:00.37 |3:49.15 |207037|224226
11| 49:49.52 |5:03.41 |224227|246992
12| 54:53.18 |4:35.67 |246993|267684
13| 59:29.10 |3:57.69 |267685|285528
14| 63:27.04 |4:42.10 |285529|306688
Range status and errors
Selected range
Filename L:\SA\2009 - The Days Of Grays [Japan]\Sonata Arctica - The Days Of Grays [Japan] CD1.wav
Peak level 97.7 %
Range quality 100.0 %
Test CRC 4906B307
Copy CRC 4906B307
Copy OK
No errors occurred
AccurateRip summary
Track1accurately ripped (confidence 4)[E86ED174]
Track2accurately ripped (confidence 4)[F5EFB36B]
Track3accurately ripped (confidence 4)[0BBE6D06]
Track4accurately ripped (confidence 4)[709E79D2]
Track5accurately ripped (confidence 4)[5FFDC991]
Track6accurately ripped (confidence 4)[E2D023D7]
Track7accurately ripped (confidence 4)[C05475C3]
Track8accurately ripped (confidence 4)[6E277498]
Track9accurately ripped (confidence 4)[1C52558F]
Track 10accurately ripped (confidence 4)[8772D59F]
Track 11accurately ripped (confidence 4)[1FAF149D]
Track 12accurately ripped (confidence 4)[62B95E9D]
Track 13accurately ripped (confidence 4)[15AF3012]
Track 14accurately ripped (confidence 4)[093F6431]
All tracks accurately ripped
End of status report
EAC Log CD2
Код:
Exact Audio Copy V0.99 prebeta 5 from 4. May 2009
EAC extraction logfile from 22. February 2011, 15:04
Sonata Arctica / The Days Of Grays [Japan] CD2
Used drive: Optiarc DVD RW AD-7220SAdapter: 3ID: 0
Read mode: Secure
Utilize accurate stream : Yes
Defeat audio cache: Yes
Make use of C2 pointers : No
Read offset correction: 6
Overread into Lead-In and Lead-Out: No
Fill up missing offset samples with silence : Yes
Delete leading and trailing silent blocks: No
Null samples used in CRC calculations: Yes
Used interface: Native Win32 interface for Win NT & 2000
Used output format : Internal WAV Routines
Sample format: 44.100 Hz; 16 Bit; Stereo
TOC of the extracted CD
Track |Start|Length| Start sector | End sector
---------------------------------------------------------
1|0:00.00 |4:26.72 |0|20021
2|4:26.72 |5:56.30 |20022|46751
3| 10:23.27 |4:06.10 |46752|65211
4| 14:29.37 |6:22.73 |65212|93934
5| 20:52.35 |4:38.21 |93935|114805
6| 25:30.56 |6:08.48 |114806|142453
Range status and errors
Selected range
Filename L:\SA\2009 - The Days Of Grays [Japan]\Sonata Arctica - The Days Of Grays [Japan] CD2.wav
Peak level 100.0 %
Range quality 99.9 %
Test CRC 16DE4E4D
Copy CRC 16DE4E4D
Copy OK
No errors occurred
AccurateRip summary
Track1accurately ripped (confidence 4)[0F251DD3]
Track2accurately ripped (confidence 4)[8B4AEF42]
Track3accurately ripped (confidence 4)[1778BEF4]
Track4accurately ripped (confidence 4)[0BA39FB5]
Track5accurately ripped (confidence 4)[51956DA7]
Track6accurately ripped (confidence 4)[04672A25]
All tracks accurately ripped
End of status report
-Best Of
2005 - The End Of This Chapter [Japan]

[01:17] 01. ...Of Silence
[03:51] 02. Weballergy
[03:41] 03. 8th Commandment
[05:08] 04. FullMoon
[05:14] 05. Ain't Your Fairytale
[03:43] 06. UnOpened
[05:37] 07. Abandoned, Pleased, Brainwashed, Exploited
[04:12] 08. Don't Say A Word (Single Version)
[04:43] 09. Victoria's Secret
[04:04] 10. Black File
[04:37] 11. My Land
[03:40] 12. Black Sheep
[04:17] 13. Wolf & Raven
[04:43] 14. San Sebastian (Original Version)
[04:37] 15. The Cage
[07:06] 16. The End Of This Chapter
[04:09] 17. Draw Me (Instrumental Version)
[1:14:48]
Avalon MICP-10527
EAC Log
Код:
Exact Audio Copy V0.99 prebeta 5 from 4. May 2009
EAC extraction logfile from 18. February 2011, 19:24
Sonata Arctica / The End Of This Chapter [Japan]
Used drive: Optiarc DVD RW AD-7220SAdapter: 3ID: 0
Read mode: Secure
Utilize accurate stream : Yes
Defeat audio cache: Yes
Make use of C2 pointers : No
Read offset correction: 6
Overread into Lead-In and Lead-Out: No
Fill up missing offset samples with silence : Yes
Delete leading and trailing silent blocks: No
Null samples used in CRC calculations: Yes
Used interface: Native Win32 interface for Win NT & 2000
Used output format : Internal WAV Routines
Sample format: 44.100 Hz; 16 Bit; Stereo
TOC of the extracted CD
Track |Start|Length| Start sector | End sector
---------------------------------------------------------
1|0:00.00 |1:17.60 |0|5834
2|1:17.60 |3:51.37 |5835|23196
3|5:09.22 |3:41.70 |23197|39841
4|8:51.17 |5:08.02 |39842|62943
5| 13:59.19 |5:14.68 |62944|86561
6| 19:14.12 |3:43.10 |86562|103296
7| 22:57.22 |5:37.62 |103297|128633
8| 28:35.09 |4:12.59 |128634|147592
9| 32:47.68 |4:43.18 |147593|168835
10| 37:31.11 |4:04.42 |168836|187177
11| 41:35.53 |4:37.20 |187178|207972
12| 46:12.73 |3:40.30 |207973|224502
13| 49:53.28 |4:17.40 |224503|243817
14| 54:10.68 |4:43.72 |243818|265114
15| 58:54.65 |4:37.33 |265115|285922
16| 63:32.23 |7:06.37 |285923|317909
17| 70:38.60 |4:09.73 |317910|336657
Range status and errors
Selected range
Filename L:\SA\2005 - The End Of This Chapter\Sonata Arctica - The End Of This Chapter [Japan].wav
Peak level 98.8 %
Range quality 100.0 %
Test CRC A18C611D
Copy CRC A18C611D
Copy OK
No errors occurred
AccurateRip summary
Track1cannot be verified as accurate (confidence 2)[38F7E271], AccurateRip returned [6C7D6085]
Track2cannot be verified as accurate (confidence 2)[4E7EA421], AccurateRip returned [621C0E64]
Track3cannot be verified as accurate (confidence 2)[B8457852], AccurateRip returned [B5D6CB69]
Track4cannot be verified as accurate (confidence 2)[EAA0A6FD], AccurateRip returned [D8348813]
Track5cannot be verified as accurate (confidence 2)[5443290A], AccurateRip returned [19EFB605]
Track6cannot be verified as accurate (confidence 2)[472CD48F], AccurateRip returned [2F8F24ED]
Track7cannot be verified as accurate (confidence 2)[888CD4FA], AccurateRip returned [FCB49432]
Track8cannot be verified as accurate (confidence 2)[2D3C2915], AccurateRip returned [693BC978]
Track9cannot be verified as accurate (confidence 2)[7AA49A5F], AccurateRip returned [96C0403D]
Track 10cannot be verified as accurate (confidence 2)[30DC9C4D], AccurateRip returned [8EC2DBEF]
Track 11cannot be verified as accurate (confidence 2)[4D33C62A], AccurateRip returned [2A4C09EB]
Track 12cannot be verified as accurate (confidence 2)[01B4433D], AccurateRip returned [912AB1AF]
Track 13cannot be verified as accurate (confidence 2)[1A60D248], AccurateRip returned [C9A816BD]
Track 14cannot be verified as accurate (confidence 2)[F36C131F], AccurateRip returned [65E52BF9]
Track 15cannot be verified as accurate (confidence 2)[080D48BA], AccurateRip returned [9BB71F30]
Track 16cannot be verified as accurate (confidence 2)[9DDA09D7], AccurateRip returned [B2813B32]
Track 17cannot be verified as accurate (confidence 2)[C7C7C3FB], AccurateRip returned [AAD1734C]
No tracks could be verified as accurate
You may have a different pressing from the one(s) in the database
End of status report
2006 - The Collection

[05:14] 01. The Ruins Of My Life
[03:44] 02. 8th Commandment
[04:15] 03. Don't Say A Word
[04:46] 04. Victoria's Secret
[05:23] 05. Tallulah
[04:17] 06. Wolf & Raven
[03:44] 07. Black Sheep
[05:18] 08. Broken
[03:53] 09. Kingdom For A Heart
[05:08] 10. FullMoon
[04:51] 11. My Land (2006)
[04:39] 12. The Cage
[05:14] 13. Last Drop Falls
[03:43] 14. UnOpened
[04:37] 15. San Sebastian (Revisited)
[05:17] 16. Ain't Your Fairytale
[04:31] 17. Replica (2006)
[1:18:41]
ФОНО FO657CD
EAC Log
Код:
Exact Audio Copy V0.99 prebeta 5 from 4. May 2009
EAC extraction logfile from 21. February 2011, 12:06
Sonata Arctica / The Collection
Used drive: Optiarc DVD RW AD-7220SAdapter: 3ID: 0
Read mode: Secure
Utilize accurate stream : Yes
Defeat audio cache: Yes
Make use of C2 pointers : No
Read offset correction: 6
Overread into Lead-In and Lead-Out: No
Fill up missing offset samples with silence : Yes
Delete leading and trailing silent blocks: No
Null samples used in CRC calculations: Yes
Used interface: Native Win32 interface for Win NT & 2000
Used output format : Internal WAV Routines
Sample format: 44.100 Hz; 16 Bit; Stereo
TOC of the extracted CD
Track |Start|Length| Start sector | End sector
---------------------------------------------------------
1|0:00.00 |5:14.63 |0|23612
2|5:14.63 |3:44.66 |23613|40478
3|8:59.54 |4:15.19 |40479|59622
4| 13:14.73 |4:46.14 |59623|81086
5| 18:01.12 |5:23.15 |81087|105326
6| 23:24.27 |4:17.42 |105327|124643
7| 27:41.69 |3:44.01 |124644|141444
8| 31:25.70 |5:18.08 |141445|165302
9| 36:44.03 |3:53.41 |165303|182818
10| 40:37.44 |5:08.38 |182819|205956
11| 45:46.07 |4:51.38 |205957|227819
12| 50:37.45 |4:39.18 |227820|248762
13| 55:16.63 |5:14.73 |248763|272385
14| 60:31.61 |3:43.11 |272386|289121
15| 64:14.72 |4:37.64 |289122|309960
16| 68:52.61 |5:17.18 |309961|333753
17| 74:10.04 |4:31.70 |333754|354148
Range status and errors
Selected range
Filename L:\SA\2006 - The Collection\Sonata Arctica - The Collection.wav
Peak level 97.7 %
Range quality 100.0 %
Test CRC CCDA6960
Copy CRC CCDA6960
Copy OK
No errors occurred
AccurateRip summary
Track1cannot be verified as accurate (confidence 18)[A93F41C3], AccurateRip returned [882954E6]
Track2cannot be verified as accurate (confidence 18)[DD69B054], AccurateRip returned [0812FAAC]
Track3cannot be verified as accurate (confidence 18)[D4195413], AccurateRip returned [829C7835]
Track4cannot be verified as accurate (confidence 18)[BFA181C1], AccurateRip returned [3EAF631A]
Track5cannot be verified as accurate (confidence 18)[3BC21778], AccurateRip returned [9E77168B]
Track6cannot be verified as accurate (confidence 18)[F83AF1FD], AccurateRip returned [46373718]
Track7cannot be verified as accurate (confidence 18)[305E1D7B], AccurateRip returned [5ED4EBE3]
Track8cannot be verified as accurate (confidence 18)[67E50250], AccurateRip returned [FDE6B2A9]
Track9cannot be verified as accurate (confidence 18)[C8BA021D], AccurateRip returned [8CE428A7]
Track 10cannot be verified as accurate (confidence 18)[35660585], AccurateRip returned [65C05DBA]
Track 11cannot be verified as accurate (confidence 18)[5B72C875], AccurateRip returned [B27DA813]
Track 12cannot be verified as accurate (confidence 18)[FE97143A], AccurateRip returned [A2383218]
Track 13cannot be verified as accurate (confidence 18)[77C504CF], AccurateRip returned [9E2A3DFE]
Track 14cannot be verified as accurate (confidence 18)[38A49013], AccurateRip returned [0B3C3BF6]
Track 15cannot be verified as accurate (confidence 18)[0D73510F], AccurateRip returned [CEE18661]
Track 16cannot be verified as accurate (confidence 18)[70E7E28A], AccurateRip returned [903C9D5A]
Track 17cannot be verified as accurate (confidence 17)[37978EB1], AccurateRip returned [598898E7]
No tracks could be verified as accurate
You may have a different pressing from the one(s) in the database
End of status report
-MCD | EP
2000 - Successor [Argentina]

[04:00] 01. FullMoon (Edit)
[04:33] 02. Still Loving You
[03:52] 03. I Want Out
[04:46] 04. San Sebastian
[04:18] 05. Shy
[03:40] 06. Kingdom For A Heart (Live)
[04:46] 07. Replica (Live)
[04:24] 08. My Land (Live)
[03:55] 09. 8th Commandment (Live)
[05:32] 10. Letter To Dana (Live)
[04:01] 11. UnOpened (Live)
[04:57] 12. FullMoon (Live)
[52:49]
NEMS 216
EAC Log
Код:
Exact Audio Copy V0.99 prebeta 5 from 4. May 2009
EAC extraction logfile from 18. February 2011, 16:51
Sonata Arctica / Successor [Argentina]
Used drive: Optiarc DVD RW AD-7220SAdapter: 3ID: 0
Read mode: Secure
Utilize accurate stream : Yes
Defeat audio cache: Yes
Make use of C2 pointers : No
Read offset correction: 6
Overread into Lead-In and Lead-Out: No
Fill up missing offset samples with silence : Yes
Delete leading and trailing silent blocks: No
Null samples used in CRC calculations: Yes
Used interface: Native Win32 interface for Win NT & 2000
Used output format : Internal WAV Routines
Sample format: 44.100 Hz; 16 Bit; Stereo
TOC of the extracted CD
Track |Start|Length| Start sector | End sector
---------------------------------------------------------
1|0:00.00 |4:00.66 |0|18065
2|4:00.66 |4:33.66 |18066|38606
3|8:34.57 |3:52.31 |38607|56037
4| 12:27.13 |4:46.48 |56038|77535
5| 17:13.61 |4:18.72 |77536|96957
6| 21:32.58 |3:40.62 |96958|113519
7| 25:13.45 |4:46.27 |113520|134996
8| 29:59.72 |4:24.27 |134997|154823
9| 34:24.24 |3:55.03 |154824|172451
10| 38:19.27 |5:32.12 |172452|197363
11| 43:51.39 |4:01.14 |197364|215452
12| 47:52.53 |4:57.06 |215453|237733
Range status and errors
Selected range
Filename L:\SA\2000 - Successor [Argentina]\Sonata Arctica - Successor [Argentina].wav
Peak level 98.8 %
Range quality 100.0 %
Test CRC 33FCB33C
Copy CRC 33FCB33C
Copy OK
No errors occurred
AccurateRip summary
Track1accurately ripped (confidence 3)[8607B781]
Track2accurately ripped (confidence 3)[CC6026F1]
Track3accurately ripped (confidence 3)[1197913B]
Track4accurately ripped (confidence 3)[A0C7715C]
Track5accurately ripped (confidence 3)[00B1B436]
Track6accurately ripped (confidence 3)[10859FDF]
Track7accurately ripped (confidence 3)[374E5F1E]
Track8accurately ripped (confidence 3)[664604C1]
Track9accurately ripped (confidence 3)[04071121]
Track 10accurately ripped (confidence 3)[34380E42]
Track 11accurately ripped (confidence 3)[15BAA5CF]
Track 12accurately ripped (confidence 3)[A7954746]
All tracks accurately ripped
End of status report
2000 - Successor [Japan]

[04:00] 01. FullMoon (Edit)
[04:33] 02. Still Loving You
[03:52] 03. I Want Out
[04:46] 04. San Sebastian
[04:18] 05. Shy
[04:48] 06. Replica (Live)
[04:22] 07. My Land (Live)
[04:05] 08. UnOpened (Live)
[04:54] 09. FullMoon (Live)
[39:42]
Avalon MICP-10201
EAC Log
Код:
Exact Audio Copy V0.99 prebeta 5 from 4. May 2009
EAC extraction logfile from 18. February 2011, 17:07
Sonata Arctica / Successor [Japan]
Used drive: Optiarc DVD RW AD-7220SAdapter: 3ID: 0
Read mode: Secure
Utilize accurate stream : Yes
Defeat audio cache: Yes
Make use of C2 pointers : No
Read offset correction: 6
Overread into Lead-In and Lead-Out: No
Fill up missing offset samples with silence : Yes
Delete leading and trailing silent blocks: No
Null samples used in CRC calculations: Yes
Used interface: Native Win32 interface for Win NT & 2000
Used output format : Internal WAV Routines
Sample format: 44.100 Hz; 16 Bit; Stereo
TOC of the extracted CD
Track |Start|Length| Start sector | End sector
---------------------------------------------------------
1|0:00.00 |4:00.30 |0|18029
2|4:00.30 |4:33.67 |18030|38571
3|8:34.22 |3:52.33 |38572|56004
4| 12:26.55 |4:46.45 |56005|77499
5| 17:13.25 |4:18.50 |77500|96899
6| 21:32.00 |4:48.17 |96900|118516
7| 26:20.17 |4:22.46 |118517|138212
8| 30:42.63 |4:05.12 |138213|156599
9| 34:48.00 |4:54.68 |156600|178717
Range status and errors
Selected range
Filename L:\SA\2000 - Successor [Japan]\Sonata Arctica - Successor [Japan].wav
Peak level 98.8 %
Range quality 99.9 %
Test CRC C3FBA43F
Copy CRC C3FBA43F
Copy OK
No errors occurred
AccurateRip summary
Track1accurately ripped (confidence 1)[0DA5FA2D]
Track2accurately ripped (confidence 1)[7133E2FC]
Track3accurately ripped (confidence 1)[8739854E]
Track4accurately ripped (confidence 1)[0DABDD59]
Track5accurately ripped (confidence 1)[1BB5974C]
Track6accurately ripped (confidence 1)[BE7FC0A9]
Track7accurately ripped (confidence 1)[85D664E6]
Track8accurately ripped (confidence 1)[7269CCB3]
Track9accurately ripped (confidence 1)[FEAFC4B6]
All tracks accurately ripped
End of status report
2001 - Orientation [Japan]

[03:42] 01. Black Sheep
[05:05] 02. Mary-Lou (Acoustic Version)
[04:44] 03. The Wind Beneath My Wings
[04:24] 04. Die With Your Boots On
[17:57]
Video:
1. Message From Members
2. Wolf & Raven (Video Clip)
Avalon MICP-10256
EAC Log
Код:
Exact Audio Copy V0.99 prebeta 5 from 4. May 2009
EAC extraction logfile from 18. February 2011, 18:51
Sonata Arctica / Orientation [Japan]
Used drive: Optiarc DVD RW AD-7220SAdapter: 3ID: 0
Read mode: Secure
Utilize accurate stream : Yes
Defeat audio cache: Yes
Make use of C2 pointers : No
Read offset correction: 6
Overread into Lead-In and Lead-Out: No
Fill up missing offset samples with silence : Yes
Delete leading and trailing silent blocks: No
Null samples used in CRC calculations: Yes
Used interface: Native Win32 interface for Win NT & 2000
Used output format : Internal WAV Routines
Sample format: 44.100 Hz; 16 Bit; Stereo
TOC of the extracted CD
Track |Start|Length| Start sector | End sector
---------------------------------------------------------
1|0:00.00 |3:42.47 |0|16696
2|3:42.47 |5:05.46 |16697|39617
3|8:48.18 |4:44.62 |39618|60979
4| 13:33.05 |4:24.03 |60980|80782
5| 20:29.08 | 16:15.27 |92183|165334
Range status and errors
Selected range
Filename L:\SA\2001 - Orientation [Japan]\Sonata Arctica - Orientation [Japan].wav
Peak level 96.3 %
Range quality 100.0 %
Test CRC 5976A9B5
Copy CRC 5976A9B5
Copy OK
No errors occurred
AccurateRip summary
Track1accurately ripped (confidence 5)[1CD39C22]
Track2accurately ripped (confidence 5)[723A7B7E]
Track3accurately ripped (confidence 5)[E3217E0D]
Track4accurately ripped (confidence 5)[AFA62684]
All tracks accurately ripped
End of status report
Video Info

Video: MPEG1 Video 320x240 29.97fps 1600Kbps
Audio: MPEG Audio 48000Hz stereo 192Kbps
2003 - Takatalvi [Japan]

[04:46] 01. San Sebastian
[03:37] 02. The Gun
[04:34] 03. Still Loving You
[04:19] 04. Shy
[04:26] 05. Dream Thieves
[03:53] 06. I Want Out
[05:43] 07. Fade To Black
[31:21]
Video:
1. Broken
Avalon MICP-10403
EAC Log
Код:
Exact Audio Copy V0.99 prebeta 5 from 4. May 2009
EAC extraction logfile from 18. February 2011, 17:27
Sonata Arctica / Takatalvi [Japan]
Used drive: Optiarc DVD RW AD-7220SAdapter: 3ID: 0
Read mode: Secure
Utilize accurate stream : Yes
Defeat audio cache: Yes
Make use of C2 pointers : No
Read offset correction: 6
Overread into Lead-In and Lead-Out: No
Fill up missing offset samples with silence : Yes
Delete leading and trailing silent blocks: No
Null samples used in CRC calculations: Yes
Used interface: Native Win32 interface for Win NT & 2000
Used output format : Internal WAV Routines
Sample format: 44.100 Hz; 16 Bit; Stereo
TOC of the extracted CD
Track |Start|Length| Start sector | End sector
---------------------------------------------------------
1|0:00.00 |4:46.72 |0|21521
2|4:46.72 |3:37.21 |21522|37817
3|8:24.18 |4:34.67 |37818|58434
4| 12:59.10 |4:19.12 |58435|77871
5| 17:18.22 |4:26.12 |77872|97833
6| 21:44.34 |3:53.42 |97834|115350
7| 25:38.01 |5:43.14 |115351|141089
8| 33:53.15 |6:14.41 |152490|180580
Range status and errors
Selected range
Filename L:\SA\2003 - Takatalvi [Japan]\Sonata Arctica - Takatalvi [Japan].wav
Peak level 98.8 %
Range quality 100.0 %
Test CRC EC8A4458
Copy CRC EC8A4458
Copy OK
No errors occurred
AccurateRip summary
Track1accurately ripped (confidence 2)[D049998F]
Track2accurately ripped (confidence 2)[AFBD1171]
Track3accurately ripped (confidence 2)[AEDDE717]
Track4accurately ripped (confidence 2)[7E493D76]
Track5accurately ripped (confidence 2)[63641D2A]
Track6accurately ripped (confidence 2)[B16321AF]
Track7accurately ripped (confidence 2)[BAA2F825]
All tracks accurately ripped
End of status report
Video Info

Video: MPEG1 Video 352x240 29.97fps 1150Kbps
Audio: MPEG Audio 48000Hz stereo 224Kbps
2004 - Don't Say A Word

[04:15] 01. Don't Say A Word (Edit)
[05:18] 02. Ain't Your Fairytale
[04:02] 03. World In My Eyes
[03:56] 04. Two Minds, One Soul
[17:31]
Irond CD 04-871
EAC Log
Код:
Exact Audio Copy V0.99 prebeta 5 from 4. May 2009
EAC extraction logfile from 22. February 2011, 14:27
Sonata Arctica / Don't Say A Word
Used drive: Optiarc DVD RW AD-7220SAdapter: 3ID: 0
Read mode: Secure
Utilize accurate stream : Yes
Defeat audio cache: Yes
Make use of C2 pointers : No
Read offset correction: 6
Overread into Lead-In and Lead-Out: No
Fill up missing offset samples with silence : Yes
Delete leading and trailing silent blocks: No
Null samples used in CRC calculations: Yes
Used interface: Native Win32 interface for Win NT & 2000
Used output format : Internal WAV Routines
Sample format: 44.100 Hz; 16 Bit; Stereo
TOC of the extracted CD
Track |Start|Length| Start sector | End sector
---------------------------------------------------------
1|0:00.00 |4:15.38 |0|19162
2|4:15.38 |5:18.02 |19163|43014
3|9:33.40 |4:02.11 |43015|61175
4| 13:35.51 |3:56.23 |61176|78898
Range status and errors
Selected range
Filename L:\SA\2004 - Don't Say A Word\Sonata Arctica - Don't Say A Word.wav
Peak level 97.7 %
Range quality 99.9 %
Test CRC CB20B78E
Copy CRC CB20B78E
Copy OK
No errors occurred
AccurateRip summary
Track1accurately ripped (confidence 3)[BC4A55AA]
Track2accurately ripped (confidence 3)[00440F36]
Track3accurately ripped (confidence 3)[0E9E841E]
Track4accurately ripped (confidence 3)[029606D6]
All tracks accurately ripped
End of status report
2004 - Don't Say A Word [Japan]

[04:15] 01. Don't Say A Word (Edit)
[05:18] 02. Ain't Your Fairytale
[04:02] 03. World In My Eyes
[03:56] 04. Two Minds, One Soul
[17:31]
Avalon MICP-40004
EAC Log
Код:
Exact Audio Copy V0.99 prebeta 5 from 4. May 2009
EAC extraction logfile from 22. February 2011, 14:17
Sonata Arctica / Don't Say A Word [Japan]
Used drive: Optiarc DVD RW AD-7220SAdapter: 3ID: 0
Read mode: Secure
Utilize accurate stream : Yes
Defeat audio cache: Yes
Make use of C2 pointers : No
Read offset correction: 6
Overread into Lead-In and Lead-Out: No
Fill up missing offset samples with silence : Yes
Delete leading and trailing silent blocks: No
Null samples used in CRC calculations: Yes
Used interface: Native Win32 interface for Win NT & 2000
Used output format : Internal WAV Routines
Sample format: 44.100 Hz; 16 Bit; Stereo
TOC of the extracted CD
Track |Start|Length| Start sector | End sector
---------------------------------------------------------
1|0:00.00 |4:15.38 |0|19162
2|4:15.38 |5:18.02 |19163|43014
3|9:33.40 |4:02.11 |43015|61175
4| 13:35.51 |3:56.23 |61176|78898
Range status and errors
Selected range
Filename L:\SA\2004 - Don't Say A Word [Japan]\Sonata Arctica - Don't Say A Word [Japan].wav
Peak level 97.7 %
Range quality 99.9 %
Test CRC 1327D49F
Copy CRC 1327D49F
Copy OK
No errors occurred
AccurateRip summary
Track1accurately ripped (confidence 7)[2A53295D]
Track2accurately ripped (confidence 8)[E49EB665]
Track3accurately ripped (confidence 8)[C61B3A8C]
Track4accurately ripped (confidence 8)[818C29ED]
All tracks accurately ripped
End of status report
2010 - Takatalvi (Re-release)

[04:44] 01. San Sebastian (Original Version)
[03:37] 02. The Gun
[04:34] 03. Still Loving You (Scorpions Cover)
[04:17] 04. Shy
[04:23] 05. Dream Thieves
[03:53] 06. I Want Out (Helloween Cover)
[05:44] 07. Fade To Black (Metallica Cover)
[03:44] 08. Black Sheep
[05:06] 09. Mary-Lou (Acoustic Version)
[04:46] 10. The Wind Beneath My Wings (Bette Midler Cover)
[04:23] 11. Die With Your Boots On (Iron Maiden Cover)
[49:17]
Spinefarn SPI364CD
EAC Log
Код:
Exact Audio Copy V0.99 prebeta 5 from 4. May 2009
EAC extraction logfile from 18. February 2011, 17:47
Sonata Arctica / Takatalvi (Re-release)
Used drive: Optiarc DVD RW AD-7220SAdapter: 3ID: 0
Read mode: Secure
Utilize accurate stream : Yes
Defeat audio cache: Yes
Make use of C2 pointers : No
Read offset correction: 6
Overread into Lead-In and Lead-Out: No
Fill up missing offset samples with silence : Yes
Delete leading and trailing silent blocks: No
Null samples used in CRC calculations: Yes
Used interface: Native Win32 interface for Win NT & 2000
Used output format : Internal WAV Routines
Sample format: 44.100 Hz; 16 Bit; Stereo
TOC of the extracted CD
Track |Start|Length| Start sector | End sector
---------------------------------------------------------
1|0:00.00 |4:44.56 |0|21355
2|4:44.56 |3:37.15 |21356|37645
3|8:21.71 |4:34.15 |37646|58210
4| 12:56.11 |4:17.11 |58211|77496
5| 17:13.22 |4:23.39 |77497|97260
6| 21:36.61 |3:53.62 |97261|114797
7| 25:30.48 |5:44.51 |114798|140648
8| 31:15.24 |3:44.37 |140649|157485
9| 34:59.61 |5:06.41 |157486|180476
10| 40:06.27 |4:46.72 |180477|201998
11| 44:53.24 |4:23.61 |201999|221784
Range status and errors
Selected range
Filename L:\SA\2010 - Takatalvi (Re-release)\Sonata Arctica - Takatalvi (Re-release).wav
Peak level 98.8 %
Range quality 100.0 %
Test CRC 93A2B43E
Copy CRC 93A2B43E
Copy OK
No errors occurred
AccurateRip summary
Track1accurately ripped (confidence 5)[11ADCCEA]
Track2accurately ripped (confidence 5)[D42B0610]
Track3accurately ripped (confidence 5)[2F3A2424]
Track4accurately ripped (confidence 5)[86D9ECC3]
Track5accurately ripped (confidence 5)[B11C80D6]
Track6accurately ripped (confidence 5)[3DDA0F4A]
Track7accurately ripped (confidence 5)[64B422C2]
Track8accurately ripped (confidence 4)[212AF1A0]
Track9accurately ripped (confidence 5)[CD5FC6B9]
Track 10accurately ripped (confidence 5)[86016EAC]
Track 11accurately ripped (confidence 5)[D07A683F]
All tracks accurately ripped
End of status report



Вернуться к началу
 Профиль Отправить личное сообщение  
 
   Похожие торренты   Автор   Торрент   Размер 
В этой теме нет новых непрочитанных сообщений. Freedom Call - Дискография [1999-2014, Melodic power metal, MP3]

salma3

0 | 0

2.18 ГБ

В этой теме нет новых непрочитанных сообщений. The Power Station - Discography (1985-2005) MP3

salma3

0 | 1

575.52 МБ

В этой теме нет новых непрочитанных сообщений. Nightwish - Endless Forms Most Beautiful [2015, Gothic Metal, Symphonic Power Metal, MP3]

salma3

0 | 0

180.62 МБ

В этой теме нет новых непрочитанных сообщений. DragonForce - In The Line Of Fire [2015, Power Metal, MP3]

salma3

0 | 0

158.41 МБ

В этой теме нет новых непрочитанных сообщений. Путь Огня - Страж Спящих Бурь [2013, Heavy, Power Metal, MP3]

salma3

0 | 10

71.86 МБ

В этой теме нет новых непрочитанных сообщений. Класс 1999 / Class of 1999 [ужасы, фантастика, боевик, 1990] DVDRip-AVC, Dvo

salma3

128 | 38

2.66 ГБ

В этой теме нет новых непрочитанных сообщений. Класс 1999 / Class of 1999 [ужасы, фантастика, боевик, 1990] HDRip, Dvo

salma3

94 | 15

1.37 ГБ


Начать новую тему Ответить на тему  [ 1 сообщение ] 




Для Мосгорсуда, Роскомнадзора и рекламодателей:: mosgorsud-torrent[собачка]yandex.ru
cron