Торрент файл
скачать торрент магнет ссылка Добавлен: 08 авг 2011, 19:33
Размер: 2.28 ГБ
Сидеров: 4
Личеров: 6
Статус: (Aleksandr.ru)
Автор

СообщениеДобавлено: 08 авг 2011, 19:33 

Не в сети
Супермодератор
Аватара пользователя
Дата регистрации:
22 май 2010, 12:40
Спасибо: 2199 / 102
Сообщения: 2959
Откуда: Н.Новгород

Название: Дискография (6 Альбомов)
Исполнитель: Адреналин
Год: 1998-2005
Жанр: Pop
Страна: Россия

Продолжительность: 06:18:00
Формат/Кодек: FLAC
Битрейт аудио: lossless

Треклист:
01. Ковыляй потихонечку
02. Розы-морозы
03. Джульетта
04. Есть
05. Дочка (колыбельная)
06. Вранье
07. Жизнь моя
08. Всё возвращается
09. Дай бог счастья тебе
10. Королева города
11. А мы умеем любить
Код:
Exact Audio Copy V0.99 prebeta 5 from 4. May 2009
EAC extraction logfile from 8. July 2010, 17:02
Адреналин / Ковыляй потихонечку
Used drive: PIONEER DVD-RWDVR-212Adapter: 8ID: 0
Read mode: Secure
Utilize accurate stream : Yes
Defeat audio cache: Yes
Make use of C2 pointers : No
Read offset correction: 48
Overread into Lead-In and Lead-Out: No
Fill up missing offset samples with silence : Yes
Delete leading and trailing silent blocks: No
Null samples used in CRC calculations: Yes
Used interface: Installed external ASPI interface
Used output format : Internal WAV Routines
Sample format: 44.100 Hz; 16 Bit; Stereo
TOC of the extracted CD
Track |Start|Length| Start sector | End sector
---------------------------------------------------------
1|0:00.00 |3:54.18 |0|17567
2|3:54.18 |2:55.39 |17568|30731
3|6:49.57 |3:33.24 |30732|46730
4| 10:23.06 |3:29.39 |46731|62444
5| 13:52.45 |3:15.64 |62445|77133
6| 17:08.34 |3:51.42 |77134|94500
7| 21:00.01 |3:19.50 |94501|109475
8| 24:19.51 |3:56.72 |109476|127247
9| 28:16.48 |4:12.16 |127248|146163
10| 32:28.64 |4:02.70 |146164|164383
11| 36:31.59 |3:40.38 |164384|180921
Range status and errors
Selected range
Filename J:MP3Адреналин (FLAC)1998 Ковыляй потихонечкуАдреналин - Ковыляй потихонечку.wav
Peak level 98.8 %
Range quality 100.0 %
Test CRC 845D738B
Copy CRC 845D738B
Copy OK
No errors occurred
AccurateRip summary
Track1not present in database
Track2not present in database
Track3not present in database
Track4not present in database
Track5not present in database
Track6not present in database
Track7not present in database
Track8not present in database
Track9not present in database
Track 10not present in database
Track 11not present in database
None of the tracks are present in the AccurateRip database
End of status report[/spoiler]


Треклист:
01. Солнечный зайчик
02. Первая любовь
03. Ковыляй потихонечку
04. Дай бог счастья тебе
05. Ноу мани
06. Есть
07. Жизнь моя
08. Наташка
09. Джульетта
10. Дочка
11. Королева города
12. А мы умеем любить
13. Все возвращается
14. Ковыляй потихонечку (remix)
Код:
Exact Audio Copy V0.99 prebeta 5 from 4. May 2009
EAC extraction logfile from 8. July 2010, 14:44
Адреналин / Первая любовь
Used drive: PIONEER DVD-RWDVR-212Adapter: 8ID: 0
Read mode: Secure
Utilize accurate stream : Yes
Defeat audio cache: Yes
Make use of C2 pointers : No
Read offset correction: 48
Overread into Lead-In and Lead-Out: No
Fill up missing offset samples with silence : Yes
Delete leading and trailing silent blocks: No
Null samples used in CRC calculations: Yes
Used interface: Installed external ASPI interface
Used output format : Internal WAV Routines
Sample format: 44.100 Hz; 16 Bit; Stereo
TOC of the extracted CD
Track |Start|Length| Start sector | End sector
---------------------------------------------------------
1|0:00.00 |4:05.39 |0|18413
2|4:05.39 |3:57.02 |18414|36190
3|8:02.41 |3:52.05 |36191|53595
4| 11:54.46 |4:10.24 |53596|72369
5| 16:04.70 |3:40.30 |72370|88899
6| 19:45.25 |3:27.36 |88900|104460
7| 23:12.61 |3:17.62 |104461|119297
8| 26:30.48 |4:34.14 |119298|139861
9| 31:04.62 |3:31.31 |139862|155717
10| 34:36.18 |3:13.61 |155718|170253
11| 37:50.04 |4:00.48 |170254|188301
12| 41:50.52 |3:39.20 |188302|204746
13| 45:29.72 |3:54.70 |204747|222366
14| 49:24.67 |5:08.42 |222367|245508
Range status and errors
Selected range
Filename J:MP3Адреналин (FLAC)1999 Первая любовьАдреналин - Первая любовь.wav
Peak level 98.8 %
Range quality 100.0 %
Test CRC 499DCAB0
Copy CRC 499DCAB0
Copy OK
No errors occurred
AccurateRip summary
Track1not present in database
Track2not present in database
Track3not present in database
Track4not present in database
Track5not present in database
Track6not present in database
Track7not present in database
Track8not present in database
Track9not present in database
Track 10not present in database
Track 11not present in database
Track 12not present in database
Track 13not present in database
Track 14not present in database
None of the tracks are present in the AccurateRip database
End of status report[/spoiler]


Треклист:
01. Ромашки
02. На землю звезды
03. Девять недель
04. Серым дождем
05. Радости, горести
06. Мои видения
07. Королева сна
08. Колдуй бабка, колдуй дед
09. Я приду первым
10. Вранье
Код:
Exact Audio Copy V0.99 prebeta 5 from 4. May 2009
Отчёт EAC об извлечении, выполненном 30. мая 2010, 23:33
Адреналин / Душа нараспашку
Дисковод: PIONEER DVD-RWDVR-212Adapter: 8ID: 0
Режим чтения: Достоверность
Использование точного потока : Да
Отключение кэша аудио: Да
Использование указателей C2: Нет
Коррекция смещения при чтении: 48
Способность читать области Lead-in и Lead-out: Нет
Заполнение пропущенных сэмплов тишиной: Да
Удаление блоков с тишиной в начале и конце: Нет
При вычислениях CRC использовались нулевые сэмплы : Да
Интерфейс: Установленный внешний ASPI-интерфейс
Выходной формат : Внутренние WAV-операции
Формат сэмплов: 44.100 Гц; 16 бит; стерео
TOC извлечённого CD
Трек |Старт| Длительность | Начальный сектор | Конечный сектор
---------------------------------------------------------------------
1|0:00.00 |3:54.61|0|17610
2|3:54.61 |4:14.56|17611|36716
3|8:09.42 |3:46.28|36717|53694
4| 11:55.70 |4:05.48|53695|72117
5| 16:01.43 |3:33.46|72118|88138
6| 19:35.14 |4:23.63|88139|107926
7| 23:59.02 |4:12.32|107927|126858
8| 28:11.34 |3:22.14|126859|142022
9| 31:33.48 |3:28.54|142023|157676
10| 35:02.27 |3:33.74|157677|173725
Характеристики диапазона извлечения и сообщения об ошибках
Выбранный диапазон
Имя файла J:MP3Адреналин (FLAC)2000 Душа нараспашкуАдреналин - Душа нараспашку.wav
Пиковый уровень 94.4 %
Качество диапазона 100.0 %
CRC теста E53780D2
CRC копии E53780D2
Копирование... OK
Ошибок не произошло
AccurateRip: сводка
Трек1нет в базе данных
Трек2нет в базе данных
Трек3нет в базе данных
Трек4нет в базе данных
Трек5нет в базе данных
Трек6нет в базе данных
Трек7нет в базе данных
Трек8нет в базе данных
Трек9нет в базе данных
Трек 10нет в базе данных
Ни одного трека нет в базе AccurateRip
Конец отчёта[/spoiler]


Треклист:
01. Птичка
02. Радости, горести
03. Мои видения
04. Все возвращается
05. Королева города
06. Вранье
07. Дочка
08. Дай Бог счастья тебе
09. Жизнь моя
10. Ромашки
11. Вдаль от меня
12. Наташка
13. Ноу мани
14. Солнечный зайчик
15. Джульетта
16. На землю звезды…
17. Ковыляй потихонечку
Код:
Exact Audio Copy V0.99 prebeta 5 from 4. May 2009
Отчёт EAC об извлечении, выполненном 30. мая 2010, 22:30
Адреналин / Птичка
Дисковод: PIONEER DVD-RWDVR-212Adapter: 8ID: 0
Режим чтения: Достоверность
Использование точного потока : Да
Отключение кэша аудио: Да
Использование указателей C2: Нет
Коррекция смещения при чтении: 48
Способность читать области Lead-in и Lead-out: Нет
Заполнение пропущенных сэмплов тишиной: Да
Удаление блоков с тишиной в начале и конце: Нет
При вычислениях CRC использовались нулевые сэмплы : Да
Интерфейс: Установленный внешний ASPI-интерфейс
Выходной формат : Внутренние WAV-операции
Формат сэмплов: 44.100 Гц; 16 бит; стерео
TOC извлечённого CD
Трек |Старт| Длительность | Начальный сектор | Конечный сектор
---------------------------------------------------------------------
1|0:00.00 |3:32.63|0|15962
2|3:32.63 |3:35.28|15963|32115
3|7:08.16 |4:24.63|32116|51978
4| 11:33.04 |3:56.72|51979|69750
5| 15:30.01 |4:02.50|69751|87950
6| 19:32.51 |3:36.01|87951|104151
7| 23:08.52 |3:15.63|104152|118839
8| 26:24.40 |4:12.26|118840|137765
9| 30:36.66 |3:19.64|137766|152754
10| 33:56.55 |3:55.64|152755|170443
11| 37:52.44 |4:05.66|170444|188884
12| 41:58.35 |4:36.16|188885|209600
13| 46:34.51 |3:41.17|209601|226192
14| 50:15.68 |4:07.41|226193|244758
15| 54:23.34 |3:32.58|244759|260716
16| 57:56.17 |4:16.02|260717|279918
17| 62:12.19 |5:08.29|279919|303047
Характеристики диапазона извлечения и сообщения об ошибках
Выбранный диапазон
Имя файла J:MP3Адреналин (FLAC)2001 ПтичкаАдреналин - Птичка.wav
Пиковый уровень 99.3 %
Качество диапазона 100.0 %
CRC теста 74E09837
CRC копии 74E09837
Копирование... OK
Ошибок не произошло
AccurateRip: сводка
Трек1нет в базе данных
Трек2нет в базе данных
Трек3нет в базе данных
Трек4нет в базе данных
Трек5нет в базе данных
Трек6нет в базе данных
Трек7нет в базе данных
Трек8нет в базе данных
Трек9нет в базе данных
Трек 10нет в базе данных
Трек 11нет в базе данных
Трек 12нет в базе данных
Трек 13нет в базе данных
Трек 14нет в базе данных
Трек 15нет в базе данных
Трек 16нет в базе данных
Трек 17нет в базе данных
Ни одного трека нет в базе AccurateRip
Конец отчёта[/spoiler]


Треклист:
01. Без песни в лесу
02. Два часа
03. Вдаль от меня
04. Мои старые друзья
05. В сторону света
06. Девчонка красивая
07. Птичка
08. Шаб-да-будай
09. Девчонка милая
10. Кошка
11. Осень
12. Ромашки (Rmx)
Код:
Exact Audio Copy V0.99 prebeta 5 from 4. May 2009
Отчёт EAC об извлечении, выполненном 30. мая 2010, 23:12
Адреналин / Мои старые друзья
Дисковод: PIONEER DVD-RWDVR-212Adapter: 8ID: 0
Режим чтения: Достоверность
Использование точного потока : Да
Отключение кэша аудио: Да
Использование указателей C2: Нет
Коррекция смещения при чтении: 48
Способность читать области Lead-in и Lead-out: Нет
Заполнение пропущенных сэмплов тишиной: Да
Удаление блоков с тишиной в начале и конце: Нет
При вычислениях CRC использовались нулевые сэмплы : Да
Интерфейс: Установленный внешний ASPI-интерфейс
Выходной формат : Внутренние WAV-операции
Формат сэмплов: 44.100 Гц; 16 бит; стерео
TOC извлечённого CD
Трек |Старт| Длительность | Начальный сектор | Конечный сектор
---------------------------------------------------------------------
1|0:00.00 |3:38.71|0|16420
2|3:38.71 |3:41.44|16421|33039
3|7:20.40 |4:03.07|33040|51271
4| 11:23.47 |3:15.13|51272|65909
5| 14:38.60 |4:15.08|65910|85042
6| 18:53.68 |3:40.03|85043|101545
7| 22:33.71 |3:29.46|101546|117266
8| 26:03.42 |3:32.38|117267|133204
9| 29:36.05 |2:50.02|133205|145956
10| 32:26.07 |3:38.14|145957|162320
11| 36:04.21 |4:16.63|162321|181583
12| 40:21.09 |4:40.59|181584|202642
Характеристики диапазона извлечения и сообщения об ошибках
Выбранный диапазон
Имя файла J:MP3Адреналин (FLAC)2002 Мои старые друзьяАдреналин - Мои старые друзья.wav
Пиковый уровень 100.0 %
Качество диапазона 100.0 %
CRC теста ADE54608
CRC копии ADE54608
Копирование... OK
Ошибок не произошло
AccurateRip: сводка
Трек1нет в базе данных
Трек2нет в базе данных
Трек3нет в базе данных
Трек4нет в базе данных
Трек5нет в базе данных
Трек6нет в базе данных
Трек7нет в базе данных
Трек8нет в базе данных
Трек9нет в базе данных
Трек 10нет в базе данных
Трек 11нет в базе данных
Трек 12нет в базе данных
Ни одного трека нет в базе AccurateRip
Конец отчёта[/spoiler]


Треклист:
01. Не забывай
02. Гроза
03. Ангел
04. Друг
05. Мальчуган
06. Девочка
07. Грустный мотив
08. Игла
09. Ночь
10. Ты скажи только
11. Ты скажи только (remix)
12. Гроза (караоке)
13. Ангел (караоке)
14. Мальчуган (караоке)
Код:
Exact Audio Copy V0.99 prebeta 5 from 4. May 2009
Отчёт EAC об извлечении, выполненном 30. мая 2010, 9:45
Адреналин / Не забывай
Дисковод: PIONEER DVD-RWDVR-212Adapter: 8ID: 0
Режим чтения: Достоверность
Использование точного потока : Да
Отключение кэша аудио: Да
Использование указателей C2: Нет
Коррекция смещения при чтении: 48
Способность читать области Lead-in и Lead-out: Нет
Заполнение пропущенных сэмплов тишиной: Да
Удаление блоков с тишиной в начале и конце: Нет
При вычислениях CRC использовались нулевые сэмплы : Да
Интерфейс: Установленный внешний ASPI-интерфейс
Выходной формат : Внутренние WAV-операции
Формат сэмплов: 44.100 Гц; 16 бит; стерео
TOC извлечённого CD
Трек |Старт| Длительность | Начальный сектор | Конечный сектор
---------------------------------------------------------------------
1|0:00.00 |3:29.15|0|15689
2|3:29.15 |3:43.23|15690|32437
3|7:12.38 |3:52.44|32438|49881
4| 11:05.07 |3:48.47|49882|67028
5| 14:53.54 |3:41.21|67029|83624
6| 18:35.00 |4:07.02|83625|102151
7| 22:42.02 |3:59.20|102152|120096
8| 26:41.22 |4:06.04|120097|138550
9| 30:47.26 |3:38.34|138551|154934
10| 34:25.60 |3:30.54|154935|170738
11| 37:56.39 |3:56.67|170739|188505
12| 41:53.31 |3:43.04|188506|205234
13| 45:36.35 |3:52.44|205235|222678
14| 49:29.04 |3:41.74|222679|239327
Характеристики диапазона извлечения и сообщения об ошибках
Выбранный диапазон
Имя файла J:MP3Адреналин (FLAC)2005 Не забывайАдреналин - Не забывай.wav
Пиковый уровень 100.0 %
Качество диапазона 100.0 %
CRC теста B0CCC012
CRC копии B0CCC012
Копирование... OK
Ошибок не произошло
AccurateRip: сводка
Трек1нет в базе данных
Трек2нет в базе данных
Трек3нет в базе данных
Трек4нет в базе данных
Трек5нет в базе данных
Трек6нет в базе данных
Трек7нет в базе данных
Трек8нет в базе данных
Трек9нет в базе данных
Трек 10нет в базе данных
Трек 11нет в базе данных
Трек 12нет в базе данных
Трек 13нет в базе данных
Трек 14нет в базе данных
Ни одного трека нет в базе AccurateRip
Конец отчёта[/spoiler]



Группа “Адреналин” была образована в 1998 г. в подмосковном городе Климовске из четырех любителей-музыкантов, знающих друг-друга еще со школьной скамьи: солист-Андрей Рябенко, автор-текстовик– Илья Коган, Клавишник- Алексей Новиков и гитарист- Алексей Орешкин. У каждого за плечами был долгий путь творческих исканий, включая школьные музыкальные ансамбли, театральные кружки, городские смотры-конкурсы художественной самодеятельности, что в конце концов и привело всех к объединению и образованию группы. Будущие перспективы тогда еще для всех казались туманными и далекими, но безудержная любовь к музыке и приверженные стремления, плюс немного везения, привели в итоге к желаемому результату, когда перед нами открылись двери звукозаписывающей студии “Тандем” и началась серьезная, долгожданная работа профессионалов над нашим материалом, в чем мы особенно благодарны Николаю Юрову, Роману Заславскому и Юре Андропову. Там же, по названию одной из наших песен, с чьей-то легкой руки нас окрестили словом “Адреналин”, которое впоследствии мертво закрепилось за нашей группой, и невольно сделало нас заложниками драйвого-попсовой музыки. К тому времени, совместным творчеством Андрея и Ильи, было создано большое количество замечательных песен, которые легли в основу написания первого альбома, тем не менее формат музыки и дыхание группы определила полюбившаяся народу и вызвавшая не меньше того критики, песня “Ковыляй по-тихонечку”, которая вошла в альбом совершенно случайно, но принесла группе известность и популярность, когда однажды она зазвучала на “Русском Радио” и взошла на вершину ведущих хит-парадов. Так началась наша славная музыкальная карьера под руководством компаний “Зодиак-рекордс” и “Классик-компани”, но к сожалению, бремя каббалы всех новичков в шоу-бизнесе не обошло и нас, и в результате привело к печальному финалу и расторжению наших сними отношений. Тем не менее группа выпустила три замечательных альбома: “Ковыляй по-тихонечку”, “Первая любовь”, “Душа нараспашку”, в которые вошли многочисленные хиты, некоторые из которых, в силу слабой рекламной поддержки остались малоизвестными, как и все доброе и хорошее, но тем не менее составляют нашу творческую гордость, постоянно подтверждаемую нашими успешными выступлениями по городам России, ближнему зарубежью и за границей, где мы везде находили свою публику и завоевывали ее признания. Группа тяжело пережила материальный и творческий кризис, что практически на время заморозило всю творческую деятельность группы и даже вызвало изменения в ее составе. В настоящее время группа работает над созданием четвертого альбома, который обязательно порадует наших старых поклонников и надеемся приятно удивит новых слушателей своей искренностью и неординарным творчеством. В состав группы входят : Андрей Рябенко- солист, Алексей Новиков- клавишник, и Сергей Максимов- гитарист гр. “Бахыт-Компот”.



Вернуться к началу
 Профиль Отправить личное сообщение  
 
   Похожие торренты   Автор   Торрент   Размер 
В этой теме нет новых непрочитанных сообщений. Frankie Goes To Hollywood - Sex Mix (2012) FLAC (*.flac)

romanR10

19 | 3

935.93 МБ

В этой теме нет новых непрочитанных сообщений. Адреналин [боевик, триллер, криминал, 2006] HDRip, Dub [Расширенная версия]

salma3

0 | 0

1.45 ГБ

В этой теме нет новых непрочитанных сообщений. Адреналин / Crank [Боевик, триллер, криминал, 2006] BDRip 720p, Dub [Director’s Cut]

salma3

1 | 52

5.08 ГБ

В этой теме нет новых непрочитанных сообщений. По горячему следу - Адреналин / Neben der Spur - Adrenalin [триллер, 2014] HDTVRip, Mvo

salma3

207 | 30

1.46 ГБ

В этой теме нет новых непрочитанных сообщений. Адреналин: Высокое напряжение / Crank: High Voltage [криминал, боевик, комедия, 2009] BDRip 1080p, Dub

salma3

19 | 15

7.96 ГБ

В этой теме нет новых непрочитанных сообщений. По горячему следу - Адреналин / Neben der Spur - Adrenalin (Сирил Босс, Филипп Штеннерт / Cyrill Boss, Philipp Stennert) [2014г., Германия, триллер, HDTVRip] MVO

Alfredovich

23 | 8

1.58 ГБ

В этой теме нет новых непрочитанных сообщений. Danny Barnes - Stove Up (2017) FLAC

salma3

14 | 3

278.42 МБ


Начать новую тему Ответить на тему  [ 1 сообщение ] 




Для Мосгорсуда, Роскомнадзора и рекламодателей:: mosgorsud-torrent[собачка]yandex.ru
cron