Торрент файл
скачать торрент магнет ссылка Добавлен: 03 окт 2011, 21:56
Размер: 416.96 МБ
Сидеров: 8
Личеров: 4
Статус: (Aleksandr.ru)
Автор

СообщениеДобавлено: 03 окт 2011, 21:56 

Не в сети
Супермодератор
Аватара пользователя
Дата регистрации:
22 май 2010, 12:40
Спасибо: 2199 / 102
Сообщения: 2959
Откуда: Н.Новгород

Название: Феникс
Исполнитель: Ария
Год: 2011
Жанр: Heavy Metal
Страна: Россия

Продолжительность: 01:00:20
Формат/Кодек: FLAC
Битрейт аудио: lossless



01 Черный квадрат
02 Равновесие сил
03 Парфюмер. История одного убийцы
04 Черная легенда
05 Бои без правил
06 Феникс
07 Симфония огня
08 Аттила
09 Дальний свет
10 Реквием



Дополнительная информация:
Отчёт EAC об извлечении, выполненном 2. октября 2011, 20:23 для диска:
Ария / Феникс

Дисковод: TSSTcorpCD/DVDW TS-L532UAdapter: 0ID: 1
Режим чтения: Достоверный (C2: нет, Точный поток: да, Отключение кэша: да)
Коррекция смещения при чтении: 704
Способность читать области Lead-in и Lead-out : Нет

Выходной формат: Внутренние WAV-операции
44.100 Гц; 16 бит; стерео

Другие параметры:
Заполнение пропущенных сэмплов тишиной : Да
Удаление блоков с тишиной в начале и конце : Нет
Встроенный Win32-интерфейс для Win NT/2000

Характеристики диапазона извлечения и сообщения об ошибках
Выбранный диапазон
Имя файла J:МузыкаАрия - Феникс (2011)Ария - Феникс.wav

Пиковый уровень 99.8 %
Качество диапазона 99.9 %
CRC B9E204B7
Копирование... OK

Ошибок не произошло

Конец отчёта

REM GENRE "Heavy Metal"
REM DATE 2011
REM DISCID 8F0E240A
REM COMMENT "ExactAudioCopy v0.95b4"
PERFORMER "Ария"
TITLE "Феникс"
FILE "Ария - Феникс.flac" WAVE
TRACK 01 AUDIO
TITLE "Чёрный квадрат"
PERFORMER "Ария"
INDEX 01 00:00:00
TRACK 02 AUDIO
TITLE "Равновесие сил"
PERFORMER "Ария"
INDEX 00 05:20:03
INDEX 01 05:20:17
TRACK 03 AUDIO
TITLE "История одного убийцы"
PERFORMER "Ария"
INDEX 00 09:33:56
INDEX 01 09:33:68
TRACK 04 AUDIO
TITLE "Чёрная легенда"
PERFORMER "Ария"
INDEX 01 15:56:68
TRACK 05 AUDIO
TITLE "Бои без правил"
PERFORMER "Ария"
INDEX 00 24:00:23
INDEX 01 24:00:29
TRACK 06 AUDIO
TITLE "Феникс"
PERFORMER "Ария"
INDEX 01 30:54:63
TRACK 07 AUDIO
TITLE "Симфония огня"
PERFORMER "Ария"
INDEX 00 37:30:20
INDEX 01 37:30:46
TRACK 08 AUDIO
TITLE "Аттила"
PERFORMER "Ария"
INDEX 00 43:00:58
INDEX 01 43:01:01
TRACK 09 AUDIO
TITLE "Дальний свет"
PERFORMER "Ария"
INDEX 00 50:57:54
INDEX 01 50:57:60
TRACK 10 AUDIO
TITLE "Реквием"
PERFORMER "Ария"
INDEX 00 55:54:51
INDEX 01 55:55:02



Вернуться к началу
 Профиль Отправить личное сообщение  
 
   Похожие торренты   Автор   Торрент   Размер 
В этой теме нет новых непрочитанных сообщений. Frankie Goes To Hollywood - Sex Mix (2012) FLAC (*.flac)

romanR10

19 | 3

935.93 МБ

В этой теме нет новых непрочитанных сообщений. Феникс / Phoenix [Драма, криминал, 1998] WEB-DLRip-AVC, Dvo+Avo+Sub

salma3

34 | 26

2.9 ГБ

В этой теме нет новых непрочитанных сообщений. Феникс / Phoenix [Драма, криминал, 1998] WEB-DLRip, Dvo

salma3

6 | 0

1.46 ГБ

В этой теме нет новых непрочитанных сообщений. Феникс / Phoenix [драма, криминал, 1998] WEB-DLRip 720p, Dvo+Avo+Sub

salma3

71 | 40

4.36 ГБ

В этой теме нет новых непрочитанных сообщений. Феникс / Phoenix [триллер, криминал, драма, 1998] WEB-DL 1080p, Dvo

salma3

3 | 1

7.45 ГБ

В этой теме нет новых непрочитанных сообщений. Забытый Феникс / Phoenix Forgotten [ужасы, фантастика, детектив, 2017] HDRip, Mvo

salma3

482 | 90

1.37 ГБ

В этой теме нет новых непрочитанных сообщений. Операция Золотой Феникс / Operation Golden Phoenix [Боевик, 1994] LDRip, Avo

salma3

79 | 15

1.45 ГБ


Начать новую тему Ответить на тему  [ 1 сообщение ] 




Для Мосгорсуда, Роскомнадзора и рекламодателей:: mosgorsud-torrent[собачка]yandex.ru
cron