Торрент файл
скачать торрент магнет ссылка Добавлен: 29 окт 2011, 18:39
Размер: 13.64 ГБ
Сидеров: 6
Личеров: 7
Статус: (Aleksandr.ru)
Автор

СообщениеДобавлено: 29 окт 2011, 18:39 

Не в сети
Супермодератор
Аватара пользователя
Дата регистрации:
22 май 2010, 12:40
Спасибо: 2199 / 102
Сообщения: 2959
Откуда: Н.Новгород
Би-2 - Дискография (1998-2011), [32 альбома, 36 CD], lossless

Страна: Россия
Жанр: Rock
Битрейт аудио: lossless
Общая продолжительность: 30:37:21
РАЗДАЧА ОБНОВЛЕНА 26.10.2011!!!
Информация - в конце топика.
Трэклист:
Би-2 Официальная дискография
1998 Бесполая и грустная любовь (56:51)

01. Любовь (00:27)
02. Время (03:24)
03. Небо (03:20)
04. Свадебная песня (03:13)
05. Птицы (07:19)
06. Лав-ка (04:11)
07. Отражение (04:42)
08. Тени (04:28)
09. Любовь (часть вторая) (04:10)
10. Время перемен (05:58)
11. Медленная звезда EP (для друзей, цветы, откровение, холод, для друзей (reprise)) (15:40)
Отчет EAC
Exact Audio Copy V0.99 prebeta 3 from 28. July 2007
Отчёт EAC об извлечении, выполненном 26. ноября 2007, 1:10
БИ-2 / Бесполая и грустная любовь
Дисковод: TSSTcorpCDDVDW SN-S082H Adapter: 2 ID: 0
Режим чтения : Достоверность
Использование точного потока : Да
Отключение кэша аудио : Да
Использование указателей C2 : Нет
Коррекция смещения при чтении : 6
Способность читать области Lead-in и Lead-out : Нет
Заполнение пропущенных сэмплов тишиной : Да
Удаление блоков с тишиной в начале и конце : Нет
При вычислениях CRC использовались нулевые сэмплы : Да
Интерфейс : Встроенный Win32-интерфейс для Win NT/2000
Выходной формат : Внутренние WAV-операции
Формат сэмплов : 44.100 Гц; 16 бит; стерео
TOC извлечённого CD
Трек | Старт | Длительность | Начальный сектор | Конечный сектор
---------------------------------------------------------------------
1 | 0:00.00 | 0:27.36 | 0 | 2060
2 | 0:27.36 | 3:23.55 | 2061 | 17340
3 | 3:51.16 | 3:19.66 | 17341 | 32331
4 | 7:11.07 | 3:12.46 | 32332 | 46777
5 | 10:23.53 | 7:18.73 | 46778 | 79700
6 | 17:42.51 | 4:10.48 | 79701 | 98498
7 | 21:53.24 | 4:42.29 | 98499 | 119677
8 | 26:35.53 | 4:27.57 | 119678 | 139759
9 | 31:03.35 | 4:09.72 | 139760 | 158506
10 | 35:13.32 | 5:57.57 | 158507 | 185338
11 | 41:11.14 | 15:40.13 | 185339 | 255851
Характеристики диапазона извлечения и сообщения об ошибках
Выбранный диапазон
Имя файла E:\Torrent\BGL\БИ-2 - Бесполая и грустная любовь.wav
Пиковый уровень 100.0 %
Качество диапазона 100.0 %
CRC копии 71CA7331
Копирование... OK
Ошибок не произошло
Конец отчёта
2000 Би-2 (53:56) (EPIC 498949 2)

01. Полковнику никто не пишет (04:54)
02. Варвара (05:00)
03. Никто не придет (05:14)
04. Мой друг (04:51)
05. И корабль плывет (03:51)
06. Восток (03:52)
07. Сердце (05:08)
08. Счастье (04:06)
09. Деньги на ветер (06:34)
10. Медленно схожу с ума (05:50)
11. Серебро (04:35)
Отчет EAC
Отчёт EAC об извлечении, выполненном 13. января 2007, 21:06 для диска:
БИ-2 / БИ-2
Дисковод: SONY DVD-ROM DDU1615 Adapter: 0 ID: 3
Режим чтения: Точный (C2: нет, Точный поток: да, Отключение кэша: да)
Коррекция смещения при чтении: 6
Экстрачтение областей Lead-in и Lead-out : Нет
Выходной формат: Внутренние WAV-операции
44.100 Гц; 16 бит; стерео
Другие параметры:
Заполнение пропущенных сэмплов тишиной : Да
Удаление блоков с тишиной в начале и конце : Нет
'Родной' Win32-интерфейс для Win NT/2000
Статус диапазона и ошибки
Выбранный диапазон
Имя файла J:\Bi-2\Bi-2.wav
Пиковый уровень 100.0 %
Качество диапазона 100.0 %
CRC 9BFBFC5C
Копирование... OK
Ошибок не произошло
Конец отчёта
2000 Би-2 (переиздание) (58:20) (EPIC 498549 1)

01. Полковнику никто не пишет (04:52)
02. Варвара (05:01)
03. Никто не придет (05:14)
04. Мой друг (04:52)
05. И корабль плывет (03:50)
06. Восток (03:52)
07. Сердце (05:08)
08. Счастье (04:07)
09. Деньги на ветер (06:34)
10. Медленно схожу с ума (05:51)
11. Серебро (04:37)
12. Серебро (акустическая версия) (04:24)
Отчет EAC
Отчёт EAC об извлечении, выполненном 29. июня 2008, 18:59 для диска:
Би-2 / Би-2
Дисковод: _NEC DVD_RW ND-3520A Adapter: 1 ID: 0
Режим чтения: Достоверный (C2: нет, Точный поток: да, Отключение кэша: да)
Коррекция смещения при чтении: 48
Способность читать области Lead-in и Lead-out : Нет
Выходной формат: Внутренние WAV-операции
44.100 Гц; 16 бит; стерео
Другие параметры:
Заполнение пропущенных сэмплов тишиной : Да
Удаление блоков с тишиной в начале и конце : Нет
Встроенный Win32-интерфейс для Win NT/2000
Характеристики диапазона извлечения и сообщения об ошибках
Выбранный диапазон
Имя файла C:\Documents and Settings\Администратор\Рабочий стол\Би-2\2000 - Би-2\Би-2 - Би-2.wav
Пиковый уровень 100.0 %
Качество диапазона 99.9 %
CRC 82B099D7
Копирование... OK
Ошибок не произошло
Конец отчёта
2000 Серебро (сингл) (14:30)

01. Серебро (альбомная версия) (04:37)
02. Серебро (акустическая версия) (04:28)
03. Серебро (караоке версия) (05:26)
Отчет EAC
Exact Audio Copy V0.99 prebeta 5 from 4. May 2009
Отчёт EAC об извлечении, выполненном 8. июля 2009, 13:07
Би-2 / Серебро
Дисковод: TSSTcorpCDDVDW TS-L632H Adapter: 1 ID: 0
Режим чтения : Достоверность
Использование точного потока : Да
Отключение кэша аудио : Да
Использование указателей C2 : Нет
Коррекция смещения при чтении : 6
Способность читать области Lead-in и Lead-out : Нет
Заполнение пропущенных сэмплов тишиной : Да
Удаление блоков с тишиной в начале и конце : Нет
При вычислениях CRC использовались нулевые сэмплы : Да
Интерфейс : Установленный внешний ASPI-интерфейс
Выходной формат : Внутренние WAV-операции
Формат сэмплов : 44.100 Гц; 16 бит; стерео
TOC извлечённого CD
Трек | Старт | Длительность | Начальный сектор | Конечный сектор
---------------------------------------------------------------------
1 | 0:00.00 | 4:37.17 | 0 | 20791
2 | 4:37.17 | 4:27.49 | 20792 | 40865
3 | 9:04.66 | 5:26.00 | 40866 | 65315
Характеристики диапазона извлечения и сообщения об ошибках
Выбранный диапазон
Имя файла C:\Downloads\Музыка\2\Би-2 - Серебро.wav
Пиковый уровень 100.0 %
Качество диапазона 100.0 %
CRC теста F7790A22
CRC копии F7790A22
Копирование... OK
Ошибок не произошло
Конец отчёта
2001 Волки (макси-сингл) (28:30) (EPC 671025 2)

01. Волки (альбомная версия) (05:35)
02. Еще не вечер (04:28)
03. Феллини (feat Сплин) (04:37)
04. Еще не вечер ('99 версия) (05:41)
05. Волки (piano версия) (04:09)
06. Волки (radio edit) (04:00)
07. Феллини (feat Сплин) (видео-клип)
Феллини (feat Сплин) (видео-клип)
Продолжительность: 04:35
Audio: MPEG Audio 44100Hz stereo 112kbps
Video: MPEG1 Video 352x288 (4:3) 25.00fps 1098kbps
Отчет EAC
Отчёт EAC об извлечении, выполненном 29. июня 2008, 14:28 для диска:
Би-2 / Волки
Дисковод: _NEC DVD_RW ND-3520A Adapter: 1 ID: 0
Режим чтения: Достоверный (C2: нет, Точный поток: да, Отключение кэша: да)
Коррекция смещения при чтении: 48
Способность читать области Lead-in и Lead-out : Нет
Выходной формат: Внутренние WAV-операции
44.100 Гц; 16 бит; стерео
Другие параметры:
Заполнение пропущенных сэмплов тишиной : Да
Удаление блоков с тишиной в начале и конце : Нет
Встроенный Win32-интерфейс для Win NT/2000
Характеристики диапазона извлечения и сообщения об ошибках
Выбранный диапазон
Имя файла C:\Documents and Settings\Администратор\Рабочий стол\Би-2 - Волки\Би-2 - Волки.wav
Пиковый уровень 100.0 %
Качество диапазона 99.9 %
CRC 464E7263
Копирование... OK
Ошибок не произошло
Конец отчёта
2001 Fellini tour (1:19:12) (EPC 504642 2)

01. Tomas - Немой эскиз (05:37)
02. Tomas - Дочь ушла в дождь (06:06)
03. Tomas - Комета (03:11)
04. Би-2 - Счастье (03:39)
05. Би-2 - Сердце (04:54)
06. Би-2 - Варвара (06:42)
07. Би-2 - Волки (05:53)
08. Би-2 - Еще не вечер (05:08)
09. Би-2 - Серебро (06:25)
10. Сплин - Феллини (04:11)
11. Сплин - SOS! (04:20)
12. Сплин - Тебе это снится (05:18)
13. Сплин - Пластмассовая жизнь (02:58)
14. Сплин - Мое сердце (03:57)
15. Би-2 и Сплин - Феллини (07:05)
16. Би-2 - Бэсси (03:49)
Отчет EAC
Exact Audio Copy V0.99 prebeta 3 from 28. July 2007
Отчёт EAC об извлечении, выполненном 10. января 2008, 19:53
Thomas/БИ-2/Сплин / Fellini 2001 Tour
Дисковод: SONY CD-RW CRX320E Adapter: 1 ID: 0
Режим чтения : Достоверность
Использование точного потока : Да
Отключение кэша аудио : Да
Использование указателей C2 : Нет
Коррекция смещения при чтении : 6
Способность читать области Lead-in и Lead-out : Нет
Заполнение пропущенных сэмплов тишиной : Да
Удаление блоков с тишиной в начале и конце : Нет
При вычислениях CRC использовались нулевые сэмплы : Да
Интерфейс : Встроенный Win32-интерфейс для Win NT/2000
Выходной формат : Внутренние WAV-операции
Формат сэмплов : 44.100 Гц; 16 бит; стерео
TOC извлечённого CD
Трек | Старт | Длительность | Начальный сектор | Конечный сектор
---------------------------------------------------------------------
1 | 0:00.00 | 5:36.38 | 0 | 25237
2 | 5:36.38 | 6:05.44 | 25238 | 52656
3 | 11:42.07 | 3:11.19 | 52657 | 67000
4 | 14:53.26 | 3:38.46 | 67001 | 83396
5 | 18:31.72 | 4:53.62 | 83397 | 105433
6 | 23:25.59 | 6:41.64 | 105434 | 135572
7 | 30:07.48 | 5:52.56 | 135573 | 162028
8 | 36:00.29 | 5:08.01 | 162029 | 185129
9 | 41:08.30 | 6:25.18 | 185130 | 214022
10 | 47:33.48 | 4:10.66 | 214023 | 232838
11 | 51:44.39 | 4:20.27 | 232839 | 252365
12 | 56:04.66 | 5:18.26 | 252366 | 276241
13 | 61:23.17 | 2:58.02 | 276242 | 289593
14 | 64:21.19 | 3:56.58 | 289594 | 307351
15 | 68:18.02 | 7:05.33 | 307352 | 339259
16 | 75:23.35 | 3:49.12 | 339260 | 356446
Характеристики диапазона извлечения и сообщения об ошибках
Выбранный диапазон
Имя файла C:\Documents and Settings\NiX\Мои документы\Thomas БИ-2 Сплин - Fellini 2001 Tour.wav
Пиковый уровень 95.5 %
Качество диапазона 99.9 %
CRC копии FBB1CFCB
Копирование... OK
Ошибок не произошло
Конец отчёта
2001 Моя любовь (сингл) (21:58) (EPC 672093 2)

01. Моя любовь (альбомная версия) (05:28)
02. Моя любовь (акустическая версия) (05:25)
03. Моя любовь (instr) (07:16)
04. Бэсси (b-side, Мельбурн '98) (03:49)
05. Моя любовь (видео-клип)
Моя любовь (видео-клип)
Продолжительность: 05:12
Video: MPEG1 Video 360x288 (131:96) 25.00fps 1150kbps
Audio: MPEG Audio 44100Hz stereo 192kbps
Отчет EAC
Отчёт EAC об извлечении, выполненном 29. июня 2008, 14:45 для диска:
Би-2 / Моя любовь
Дисковод: _NEC DVD_RW ND-3520A Adapter: 1 ID: 0
Режим чтения: Достоверный (C2: нет, Точный поток: да, Отключение кэша: да)
Коррекция смещения при чтении: 48
Способность читать области Lead-in и Lead-out : Нет
Выходной формат: Внутренние WAV-операции
44.100 Гц; 16 бит; стерео
Другие параметры:
Заполнение пропущенных сэмплов тишиной : Да
Удаление блоков с тишиной в начале и конце : Нет
Встроенный Win32-интерфейс для Win NT/2000
Характеристики диапазона извлечения и сообщения об ошибках
Выбранный диапазон
Имя файла C:\Documents and Settings\Администратор\Рабочий стол\Би-2 - Моя любовь\Би-2 - Моя любовь.wav
Пиковый уровень 95.5 %
Качество диапазона 99.9 %
CRC 1D0EA6C2
Копирование... OK
Ошибок не произошло
Конец отчёта
2001 Мяу кисс ми (57:16) (EPC 505191 0)

01. Мяу кисс ми (03:50)
02. Моя любовь (04:56)
03. Зажигать (05:21)
04. Елочный сок (03:57)
05. Мой рок-н-ролл (feat Чичерина) (06:45)
06. Шер (03:23)
07. Сокол (06:30)
08. Недотрога (04:43)
09. С тобой (03:58)
10. Еще не вечер (04:32)
11. Волки (05:29)
12. Последний герой (Остаться в живых) (03:51)
Отчет EAC
Отчёт EAC об извлечении, выполненном 29. июня 2008, 19:21 для диска:
Би-2 / Мяу кисс ми
Дисковод: _NEC DVD_RW ND-3520A Adapter: 1 ID: 0
Режим чтения: Достоверный (C2: нет, Точный поток: да, Отключение кэша: да)
Коррекция смещения при чтении: 48
Способность читать области Lead-in и Lead-out : Нет
Выходной формат: Внутренние WAV-операции
44.100 Гц; 16 бит; стерео
Другие параметры:
Заполнение пропущенных сэмплов тишиной : Да
Удаление блоков с тишиной в начале и конце : Нет
Встроенный Win32-интерфейс для Win NT/2000
Характеристики диапазона извлечения и сообщения об ошибках
Выбранный диапазон
Имя файла C:\Documents and Settings\Администратор\Рабочий стол\Би-2\2001 - Мяу кисс ми\Би-2 - Мяу кисс ми.wav
Пиковый уровень 100.0 %
Качество диапазона 99.9 %
CRC 62C5AAE8
Копирование... OK
Ошибок не произошло
Конец отчёта
2002 Drum(a) (1:12:43) (EPC 508425 2)

01. Последний герой (remix by стереотип) (05:57)
02. Мой рок-н-ролл (light mix by i.m.) (05:26)
03. Елочный сок (эо mix by that black) (04:15)
04. Моя любовь (remix by yad) (04:27)
05. С тобой (nova bossa mix by da*pop) (04:08)
06. Недотрога (remix by indigo-go) (05:21)
07. Цветы (неонавт version) (06:29)
08. Сокол (roland mix by tetris) (05:19)
09. Шер (remix by y.moorush) (05:14)
10. Еще не вечер (remix by yad) (04:22)
11. Зажигать (composite mix by i.m.) (04:56)
12. Последний герой (tripper mix by соколов) (05:13)
13. Сокол (remix by y.moorush) (03:58)
14. Мой рок-н-ролл (grosso remix by неонавт) (07:37)
Отчет EAC
Отчёт EAC об извлечении, выполненном 30. июня 2008, 18:32 для диска:
Би-2 / drum[a]
Дисковод: _NEC DVD_RW ND-3520A Adapter: 1 ID: 0
Режим чтения: Достоверный (C2: нет, Точный поток: да, Отключение кэша: да)
Коррекция смещения при чтении: 48
Способность читать области Lead-in и Lead-out : Нет
Выходной формат: Внутренние WAV-операции
44.100 Гц; 16 бит; стерео
Другие параметры:
Заполнение пропущенных сэмплов тишиной : Да
Удаление блоков с тишиной в начале и конце : Нет
Встроенный Win32-интерфейс для Win NT/2000
Характеристики диапазона извлечения и сообщения об ошибках
Выбранный диапазон
Имя файла C:\Documents and Settings\Администратор\Рабочий стол\Би-2\2002 - drum[a]\Би-2 - drum[a].wav
Пиковый уровень 99.9 %
Качество диапазона 99.9 %
CRC D13CD8EE
Копирование... OK
Ошибок не произошло
Конец отчёта
2003 Песок (сингл) (38:18) (MZ 179-2)

01. Песок (сингл версия) (04:16)
02. Прощай, Берлин (05:47)
03. Прощай, Берлин (акустическая версия) (04:59)
04. Песок (80's remix by y.moorash) (04:15)
05. Песок (12'mix by y.moorash) (05:39)
06. Мой рок-н-ролл (indian версия) (feat Чичерина) (05:44)
07. Вечная любовь (03:37)
08. Снег кружится (04:01)
09. Песок (видео-клип)
Песок (видео-клип)
Продолжительность: 04:17
Audio: MPEG Audio 48000Hz stereo 128kbps
Video: MPEG1 Video 720x576 25.00fps 1856kbps
Отчет EAC
Отчёт EAC об извлечении, выполненном 30. июня 2008, 17:35 для диска:
Би-2 / Песок
Дисковод: _NEC DVD_RW ND-3520A Adapter: 1 ID: 0
Режим чтения: Достоверный (C2: нет, Точный поток: да, Отключение кэша: да)
Коррекция смещения при чтении: 48
Способность читать области Lead-in и Lead-out : Нет
Выходной формат: Внутренние WAV-операции
44.100 Гц; 16 бит; стерео
Другие параметры:
Заполнение пропущенных сэмплов тишиной : Да
Удаление блоков с тишиной в начале и конце : Нет
Встроенный Win32-интерфейс для Win NT/2000
Характеристики диапазона извлечения и сообщения об ошибках
Выбранный диапазон
Имя файла C:\Documents and Settings\Администратор\Рабочий стол\Би-2\2003 - Песок\Би-2 - Песок.wav
Пиковый уровень 98.1 %
Качество диапазона 99.9 %
CRC 5AB5D1DE
Копирование... OK
Ошибок не произошло
Конец отчёта
2004 Иnомарки (58:24) (MZ 180-2)

01. Революция (03:37)
02. Песок (04:17)
03. Достучаться до небес (feat Чайф) (05:31)
04. Сердце на волоске (04:14)
05. Скользкие улицы (feat Brainstorm) (05:40)
06. Теряю голову (feat О. Чехов) (04:34)
07. Она (04:56)
08. Реки (04:55)
09. Прощай, Берлин (05:14)
10. Ангелы (05:31)
11. Забери меня part 1 (09:38)
12. Забери меня part 2 (00:19)
Отчет EAC
Отчёт EAC об извлечении, выполненном 29. июня 2008, 20:59 для диска:
Би-2 / Иnoмарки
Дисковод: _NEC DVD_RW ND-3520A Adapter: 1 ID: 0
Режим чтения: Достоверный (C2: нет, Точный поток: да, Отключение кэша: да)
Коррекция смещения при чтении: 48
Способность читать области Lead-in и Lead-out : Нет
Выходной формат: Внутренние WAV-операции
44.100 Гц; 16 бит; стерео
Другие параметры:
Заполнение пропущенных сэмплов тишиной : Да
Удаление блоков с тишиной в начале и конце : Нет
Встроенный Win32-интерфейс для Win NT/2000
Характеристики диапазона извлечения и сообщения об ошибках
Выбранный диапазон
Имя файла C:\Documents and Settings\Администратор\Рабочий стол\Би-2\2004 - Иnoмарки\Би-2 - Иnoмарки.wav
Пиковый уровень 100.0 %
Качество диапазона 99.9 %
CRC C301C43D
Копирование... OK
Ошибок не произошло
Конец отчёта
2004 Бесполая и грустная любовь (переиздание) (2CD) (1:38:08) (MZ 211/1-2/9) (MZ 211/2-2/9)

CD1:
01. Любовь (00:28)
02. Время (03:23)
03. Небо (03:18)
04. Свадебная песня (03:11)
05. Птицы (07:17)
06. Лав-ка (04:11)
07. Отражение (04:41)
08. Тени (04:27)
09. Любовь (часть вторая) (04:10)
10. Время перемен (05:54)
11. Медленная звезда EP (для друзей, откровение, холод, для друзей (reprise)) (13:14)
12. Свадебная песня (видео-клип)
13. Лед (видео-клип)
14. Слайд-шоу
Свадебная песня (видео-клип)
Продолжительность: 03:15
Video: MPEG1 Video 352x288 (4:3) 25.00fps
Audio: MPEG Audio 44100Hz stereo 128kbps
Лед (видео-клип)
Продолжительность: 04:38
Video: MPEG1 Video 352x288 (4:3) 25.00fps
Audio: MPEG Audio 44100Hz stereo 128kbps
Слайд-шоу
Продолжительность: 04:52
Video: MPEG1 Video 352x288 (4:3) 25.00fps
Audio: MPEG Audio 44100Hz stereo 128kbps
Отчет EAC
Отчёт EAC об извлечении, выполненном 29. июня 2008, 21:35 для диска:
Би-2 / Бесполая и грустная любовь (CD1)
Дисковод: _NEC DVD_RW ND-3520A Adapter: 1 ID: 0
Режим чтения: Достоверный (C2: нет, Точный поток: да, Отключение кэша: да)
Коррекция смещения при чтении: 48
Способность читать области Lead-in и Lead-out : Нет
Выходной формат: Внутренние WAV-операции
44.100 Гц; 16 бит; стерео
Другие параметры:
Заполнение пропущенных сэмплов тишиной : Да
Удаление блоков с тишиной в начале и конце : Нет
Встроенный Win32-интерфейс для Win NT/2000
Характеристики диапазона извлечения и сообщения об ошибках
Выбранный диапазон
Имя файла C:\Documents and Settings\Администратор\Рабочий стол\Би-2\2004 - БГЛ\Би-2 - Бесполая и грустная любовь (CD1).wav
Пиковый уровень 98.1 %
Качество диапазона 99.9 %
CRC D827A848
Копирование... OK
Ошибок не произошло
Конец отчёта
CD2:
15. Небо ('04 версия) (03:35)
16. Невероятная история (Все не так) (05:14)
17. Время (04 версия) (03:53)
18. Кого ты ждешь (04:57)
19. Ice (feat M.Aliani) (04:03)
20. Shop (feat M.Aliani) (03:45)
21. Лав-ка ('98 версия ernie) (04:42)
22. Дом (live espy notel 15.06.96) (03:03)
23. Для нас (live espy notel 20.08.97) (05:47)
24. В пути (04:54)
25. Для друзей (видео-клип)
26. g-star (видео-клип)
27. Ом (видео-клип)
28. Под беспризорными дождями (видео-клип)
Для друзей (видео-клип)
Продолжительность: 03:39
Video: MPEG1 Video 352x288 (4:3) 25.00fps
Audio: MPEG Audio 44100Hz stereo 128kbps
g-star (видео-клип)
Продолжительность: 04:02
Video: MPEG1 Video 352x288 (4:3) 25.00fps
Audio: MPEG Audio 44100Hz stereo 128kbps
Ом (видео-клип)
Продолжительность: 04:07
Video: MPEG1 Video 352x288 (4:3) 25.00fps
Audio: MPEG Audio 44100Hz stereo 128kbps
Под беспризорными дождями (видео-клип)
Продолжительность: 04:58
Video: MPEG1 Video 352x288 (4:3) 25.00fps
Audio: MPEG Audio 44100Hz stereo 128kbps
Отчет EAC
Отчёт EAC об извлечении, выполненном 29. июня 2008, 21:50 для диска:
Би-2 / Бесполая и грустная любовь. (CD2)
Дисковод: _NEC DVD_RW ND-3520A Adapter: 1 ID: 0
Режим чтения: Достоверный (C2: нет, Точный поток: да, Отключение кэша: да)
Коррекция смещения при чтении: 48
Способность читать области Lead-in и Lead-out : Нет
Выходной формат: Внутренние WAV-операции
44.100 Гц; 16 бит; стерео
Другие параметры:
Заполнение пропущенных сэмплов тишиной : Да
Удаление блоков с тишиной в начале и конце : Нет
Встроенный Win32-интерфейс для Win NT/2000
Характеристики диапазона извлечения и сообщения об ошибках
Выбранный диапазон
Имя файла C:\Documents and Settings\Администратор\Рабочий стол\Би-2\2004 - БГЛ\Би-2 - Бесполая и грустная любовь. (CD2).wav
Пиковый уровень 97.7 %
Качество диапазона 99.9 %
CRC B7442A2B
Копирование... OK
Ошибок не произошло
Конец отчёта
2004 Мяу кисс ми (подарочное издание) (0:57:17) (MZ 235-9)

01. Мяу кисс ми (03:51)
02. Моя любовь (04:56)
03. Зажигать (05:21)
04. Елочный сок (03:57)
05. Мой рок-н-ролл (feat Чичерина) (06:45)
06. Шер (03:23)
07. Сокол (06:30)
08. Недотрога (04:43)
09. С тобой (03:58)
10. Еще не вечер (04:32)
11. Волки (05:29)
12. Последний герой (Остаться в живых) (03:52)
13. Волки (видео-клип)
14. Еще не вечер (видео-клип)
15. Слайд-шоу
16. Би-2 Interactive
Волки (видео-клип)
Продолжительность: 05:57
Audio: MPEG Audio 32000Hz stereo 192kbps
Video: MPEG1 Video 352x288 (4:3) 25.00fps 921kbps
Еще не вечер (видео-клип)
Продолжительность: 04:59
Audio: MPEG Audio 32000Hz stereo 192kbps
Video: MPEG1 Video 352x288 (4:3) 25.00fps 921kbps
Слайд-шоу
Продолжительность: 05:57
Audio: MPEG Audio 44100Hz stereo 224kbps
Video: MPEG1 Video 352x288 (4:3) 25.00fps 1150kbps
Отчет EAC
Exact Audio Copy V0.99 prebeta 5 from 4. May 2009
Отчёт EAC об извлечении, выполненном 9. июня 2011, 17:12
БИ-2 / Мяу Кисс Ми
Дисковод: HL-DT-STDVDRAM GH22NS40 Adapter: 2 ID: 1
Режим чтения : Достоверность
Использование точного потока : Да
Отключение кэша аудио : Да
Использование указателей C2 : Нет
Коррекция смещения при чтении : 667
Способность читать области Lead-in и Lead-out : Нет
Заполнение пропущенных сэмплов тишиной : Да
Удаление блоков с тишиной в начале и конце : Нет
При вычислениях CRC использовались нулевые сэмплы : Да
Интерфейс : Встроенный Win32-интерфейс для Win NT/2000
Выходной формат : Пользовательский кодировщик
Выбранный битрейт : 768 kBit/s
Качество : Высокий
Добавление ID3-тэга : Нет
Утилита сжатия : C:\Program Files (x86)\Exact Audio Copy\FLAC\FLAC.EXE
Дополнительные параметры : -6 -V -T "ARTIST=%a" -T "TITLE=%t" -T "ALBUM=%g" -T "DATE=%y" -T "TRACKNUMBER=%n" -T "GENRE=%m" -T "COMMENT=%e" %s -o %d
TOC извлечённого CD
Трек | Старт | Длительность | Начальный сектор | Конечный сектор
---------------------------------------------------------------------
1 | 0:00.00 | 3:50.48 | 0 | 17297
2 | 3:50.48 | 4:56.37 | 17298 | 39534
3 | 8:47.10 | 5:21.09 | 39535 | 63618
4 | 14:08.19 | 3:57.01 | 63619 | 81394
5 | 18:05.20 | 6:45.29 | 81395 | 111798
6 | 24:50.49 | 3:22.42 | 111799 | 126990
7 | 28:13.16 | 6:29.70 | 126991 | 156235
8 | 34:43.11 | 4:43.21 | 156236 | 177481
9 | 39:26.32 | 3:58.07 | 177482 | 195338
10 | 43:24.39 | 4:31.44 | 195339 | 215707
11 | 47:56.08 | 5:29.24 | 215708 | 240406
12 | 53:25.32 | 3:52.15 | 240407 | 257821
13 | 59:49.47 | 16:21.10 | 269222 | 342806
Характеристики диапазона извлечения и сообщения об ошибках
Выбранный диапазон
Имя файла C:\Users\KaIr'91\Desktop\БИ-2\БИ-2 - Мяу Кисс Ми.wav
Пиковый уровень 100.0 %
Качество диапазона 100.0 %
CRC теста 6522C575
CRC копии 6522C575
Копирование... OK
Ошибок не произошло
AccurateRip: сводка
Трек 1 точное извлечение (доверие 1) [20D40F9B]
Трек 2 точное извлечение (доверие 1) [2A33C270]
Трек 3 точное извлечение (доверие 1) [EC4F11AA]
Трек 4 точное извлечение (доверие 1) [CAF2366C]
Трек 5 точное извлечение (доверие 1) [41CB4277]
Трек 6 точное извлечение (доверие 1) [D4437459]
Трек 7 точное извлечение (доверие 1) [9DF964AD]
Трек 8 точное извлечение (доверие 1) [D0C25A43]
Трек 9 точное извлечение (доверие 1) [5210E748]
Трек 10 точное извлечение (доверие 1) [EEF51D34]
Трек 11 точное извлечение (доверие 1) [22E909EB]
Трек 12 точное извлечение (доверие 1) [222C9944]
Все треки извлечены точно
Конец отчёта
2005 Fellini tour (переиздание) (1:00:28) (MZ-237 9)

01. Би-2 - Счастье (03:40)
02. Би-2 - Сердце (04:54)
03. Би-2 - Варвара (06:42)
04. Би-2 - Волки (05:53)
05. Би-2 - Еще не вечер (05:08)
06. Би-2 - Серебро (06:25)
07. Сплин - Феллини (04:11)
08. Сплин - SOS! (04:20)
09. Сплин - Тебе это снится (05:18)
10. Сплин - Пластмассовая жизнь (02:58)
11. Сплин - Мое сердце (03:57)
12. Би-2 и Сплин - Феллини (07:03)
Отчет EAC
Exact Audio Copy V0.99 prebeta 4 from 23. January 2008
Отчёт EAC об извлечении, выполненном 24. марта 2010, 21:57
Сплин и БИ-2 / Fellini Tour
Дисковод: Optiarc DVD RW AD-7203S Adapter: 0 ID: 1
Режим чтения : Достоверность
Использование точного потока : Да
Отключение кэша аудио : Да
Использование указателей C2 : Нет
Коррекция смещения при чтении : 48
Способность читать области Lead-in и Lead-out : Нет
Заполнение пропущенных сэмплов тишиной : Да
Удаление блоков с тишиной в начале и конце : Нет
При вычислениях CRC использовались нулевые сэмплы : Да
Интерфейс : Установленный внешний ASPI-интерфейс
Выходной формат : Внутренние WAV-операции
Формат сэмплов : 44.100 Гц; 16 бит; стерео
TOC извлечённого CD
Трек | Старт | Длительность | Начальный сектор | Конечный сектор
---------------------------------------------------------------------
1 | 0:00.00 | 3:40.05 | 0 | 16504
2 | 3:40.05 | 4:53.45 | 16505 | 38524
3 | 8:33.50 | 6:41.59 | 38525 | 68658
4 | 15:15.34 | 5:52.59 | 68659 | 95117
5 | 21:08.18 | 5:07.67 | 95118 | 118209
6 | 26:16.10 | 6:25.29 | 118210 | 147113
7 | 32:41.39 | 4:11.03 | 147114 | 165941
8 | 36:52.42 | 4:20.26 | 165942 | 185467
9 | 41:12.68 | 5:18.24 | 185468 | 209341
10 | 46:31.17 | 2:58.00 | 209342 | 222691
11 | 49:29.17 | 3:56.63 | 222692 | 240454
12 | 53:26.05 | 7:02.42 | 240455 | 272146
13 | 63:00.47 | 0:07.17 | 283547 | 284088
Характеристики диапазона извлечения и сообщения об ошибках
Выбранный диапазон
Имя файла X:\Temps\Сплин и БИ-2 - Fellini Tour.wav
Пиковый уровень 94.9 %
Качество диапазона 100.0 %
CRC теста 372047EF
CRC копии 372047EF
Копирование... OK
Ошибок не произошло
AccurateRip: сводка
Трек 1 нет в базе данных
Трек 2 нет в базе данных
Трек 3 нет в базе данных
Трек 4 нет в базе данных
Трек 5 нет в базе данных
Трек 6 нет в базе данных
Трек 7 нет в базе данных
Трек 8 нет в базе данных
Трек 9 нет в базе данных
Трек 10 нет в базе данных
Трек 11 нет в базе данных
Трек 12 нет в базе данных
Ни одного трека нет в базе AccurateRip
Конец отчёта
2006 Молоко (49:39) (CP-026-01A)

01. Дурочка (04:05)
02. Он плохо кончил (03:12)
03. Радиовьетнам (04:11)
04. Держаться за воздух (05:55)
05. Привет тебе (03:59)
06. Ты будешь драться (03:44)
07. Из-за меня (04:55)
08. Научи меня быть счастливым (03:51)
09. Сны (for О.С.) (05:42)
10. Вниз (04:53)
11. Макондо (05:13)
Отчет EAC
Отчёт EAC об извлечении, выполненном 29. июня 2008, 21:18 для диска:
Би-2 / Молоко
Дисковод: _NEC DVD_RW ND-3520A Adapter: 1 ID: 0
Режим чтения: Достоверный (C2: нет, Точный поток: да, Отключение кэша: да)
Коррекция смещения при чтении: 48
Способность читать области Lead-in и Lead-out : Нет
Выходной формат: Внутренние WAV-операции
44.100 Гц; 16 бит; стерео
Другие параметры:
Заполнение пропущенных сэмплов тишиной : Да
Удаление блоков с тишиной в начале и конце : Нет
Встроенный Win32-интерфейс для Win NT/2000
Характеристики диапазона извлечения и сообщения об ошибках
Выбранный диапазон
Имя файла C:\Documents and Settings\Администратор\Рабочий стол\Би-2\2006 - Молоко\Би-2 - Молоко.wav
Пиковый уровень 100.0 %
Качество диапазона 99.9 %
CRC 7D43D513
Копирование... OK
Ошибок не произошло
Конец отчёта
2006 Молоко (подарочное издание) (1:03:58) (CP-026-01)

01. Дурочка (04:05)
02. Он плохо кончил (03:13)
03. Радиовьетнам (04:13)
04. Держаться за воздух (05:55)
05. Привет тебе (03:59)
06. Ты будешь драться (03:44)
07. Из-за меня (04:55)
08. Научи меня быть счастливым (03:51)
09. Сны (for О.С.) (05:42)
10. Вниз (04:53)
11. Макондо (05:16)
12. Дурочка (remix by Е. Панков) (03:56)
13. Дурочка (remix by Ю. Учасев, Тимошенко) (05:58)
14. Держаться за воздух (версия 2 by О. Чехов) (04:19)
Отчет EAC
Exact Audio Copy V0.99 prebeta 5 from 4. May 2009
Отчёт EAC об извлечении, выполненном 27. апреля 2010, 20:31
Unknown Artist / Unknown Title
Дисковод: SONY DVD RW DW-D22A Adapter: 0 ID: 1
Режим чтения : Достоверность
Использование точного потока : Да
Отключение кэша аудио : Да
Использование указателей C2 : Нет
Коррекция смещения при чтении : 12
Способность читать области Lead-in и Lead-out : Нет
Заполнение пропущенных сэмплов тишиной : Да
Удаление блоков с тишиной в начале и конце : Нет
При вычислениях CRC использовались нулевые сэмплы : Да
Интерфейс : Встроенный Win32-интерфейс для Win NT/2000
Выходной формат : Пользовательский кодировщик
Выбранный битрейт : 1024 kBit/s
Качество : Высокий
Добавление ID3-тэга : Нет
Утилита сжатия : C:\Program Files\Exact Audio Copy\FLAC\FLAC.EXE
Дополнительные параметры : -8 -V %s
TOC извлечённого CD
Трек | Старт | Длительность | Начальный сектор | Конечный сектор
---------------------------------------------------------------------
1 | 0:00.00 | 4:05.00 | 0 | 18374
2 | 4:05.00 | 3:12.66 | 18375 | 32840
3 | 7:17.66 | 4:12.38 | 32841 | 51778
4 | 11:30.29 | 5:55.01 | 51779 | 78404
5 | 17:25.30 | 3:58.72 | 78405 | 96326
6 | 21:24.27 | 3:44.03 | 96327 | 113129
7 | 25:08.30 | 4:54.74 | 113130 | 135253
8 | 30:03.29 | 3:51.01 | 135254 | 152579
9 | 33:54.30 | 5:42.00 | 152580 | 178229
10 | 39:36.30 | 4:52.73 | 178230 | 200202
11 | 44:29.28 | 5:16.01 | 200203 | 223903
12 | 49:45.29 | 3:56.31 | 223904 | 241634
13 | 53:41.60 | 5:58.23 | 241635 | 268507
14 | 59:40.08 | 4:18.48 | 268508 | 287905
Характеристики диапазона извлечения и сообщения об ошибках
Выбранный диапазон
Имя файла C:\ForRips\Би-2 - Молоко (подарочное издание).wav
Пиковый уровень 100.0 %
Качество диапазона 100.0 %
CRC копии 6E488008
Копирование... OK
Ошибок не произошло
AccurateRip: сводка
Трек 1 нет в базе данных
Трек 2 нет в базе данных
Трек 3 нет в базе данных
Трек 4 нет в базе данных
Трек 5 нет в базе данных
Трек 6 нет в базе данных
Трек 7 нет в базе данных
Трек 8 нет в базе данных
Трек 9 нет в базе данных
Трек 10 нет в базе данных
Трек 11 нет в базе данных
Трек 12 нет в базе данных
Трек 13 нет в базе данных
Трек 14 нет в базе данных
Ни одного трека нет в базе AccurateRip
Конец отчёта
2008 Муза (ep) (43:54)

01. Муза (03:15)
02. Черная река (04:35)
03. Кассандра (04:32)
04. Lola (feat Truffele) (05:53)
05. Муза (remix by antonionni) (05:09)
06. Муза (remix by dj дима японец) (05:51)
07. Муза (pop version by pankov) (04:01)
08. Муза (remix by dj кореец + dj vini) (07:14)
09. Снайпер (feat Диана Арбенина) (03:23)
Отчет EAC
Exact Audio Copy V0.99 prebeta 4 from 23. January 2008
EAC extraction logfile from 14. March 2009, 12:39
Би-2 / Муза (EP)
Used drive : HL-DT-STDVDRAM_GSA-T20N Adapter: 0 ID: 0
Read mode : Secure
Utilize accurate stream : Yes
Defeat audio cache : Yes
Make use of C2 pointers : No
Read offset correction : 667
Overread into Lead-In and Lead-Out : No
Fill up missing offset samples with silence : Yes
Delete leading and trailing silent blocks : No
Null samples used in CRC calculations : Yes
Used interface : Native Win32 interface for Win NT & 2000
Used output format : User Defined Encoder
Selected bitrate : 768 kBit/s
Quality : High
Add ID3 tag : No
Command line compressor : C:\Program Files\Exact Audio Copy\Flac\flac.exe
Additional command line options : -6 -V -T "ARTIST=%a" -T "TITLE=%t" -T "ALBUM=%g" -T "DATE=%y" -T "TRACKNUMBER=%n" -T "GENRE=%m" -T "COMMENT=%e" %s -o %d
TOC of the extracted CD
Track | Start | Length | Start sector | End sector
---------------------------------------------------------
1 | 0:00.00 | 3:14.60 | 0 | 14609
2 | 3:14.60 | 4:35.25 | 14610 | 35259
3 | 7:50.10 | 4:31.67 | 35260 | 55651
4 | 12:22.02 | 5:53.31 | 55652 | 82157
5 | 18:15.33 | 5:08.44 | 82158 | 105301
6 | 23:24.02 | 5:51.30 | 105302 | 131656
7 | 29:15.32 | 4:01.18 | 131657 | 149749
8 | 33:16.50 | 7:14.36 | 149750 | 182335
9 | 40:31.11 | 3:22.73 | 182336 | 197558
Range status and errors
Selected range
Filename D:\Bi-2 - Muza (EP).wav
Peak level 100.0 %
Range quality 100.0 %
Copy CRC 5448CA58
Copy OK
No errors occurred
AccurateRip summary
Track 1 not present in database
Track 2 not present in database
Track 3 not present in database
Track 4 not present in database
Track 5 not present in database
Track 6 not present in database
Track 7 not present in database
Track 8 not present in database
Track 9 not present in database
None of the tracks are present in the AccurateRip database
End of status report
2009 Лунапарк (подарочное издание) (2CD) (1:32:57) (CD-M+095-9/2) (CD-M+095-9/bonus)

CD1:
01. Караоке (03:28)
02. Bowie (04:55)
03. Банзай (04:03)
04. Муза (03:14)
05. Шар земной (04:35)
06. Третий Рим (03:19)
07. Смертельный номер (04:39)
08. До утра (feat Чичерина) (04:04)
09. Черная река (04:20)
10. Тела (03:43)
11. Луна-парк (04:06)
12. Деревянные солдаты (04:55)
13. Шамбала (03:55)
14. Школа танцев (03:38)
15. Christmas (03:52)
16. Bowie (скрытый трек) (03:41)
Отчет EAC
Exact Audio Copy V0.99 prebeta 4 from 23. January 2008
Отчёт EAC об извлечении, выполненном 21. мая 2009, 22:21
Би-2 / Лунапарк
Дисковод: Optiarc DVD RW AD-7170A Adapter: 0 ID: 0
Режим чтения : Достоверность
Использование точного потока : Да
Отключение кэша аудио : Да
Использование указателей C2 : Нет
Коррекция смещения при чтении : 48
Способность читать области Lead-in и Lead-out : Нет
Заполнение пропущенных сэмплов тишиной : Да
Удаление блоков с тишиной в начале и конце : Нет
При вычислениях CRC использовались нулевые сэмплы : Нет
Интерфейс : Встроенный Win32-интерфейс для Win NT/2000
Выходной формат : Внутренние WAV-операции
Формат сэмплов : 44.100 Гц; 16 бит; стерео
TOC извлечённого CD
Трек | Старт | Длительность | Начальный сектор | Конечный сектор
---------------------------------------------------------------------
1 | 0:00.00 | 3:27.39 | 0 | 15563
2 | 3:27.39 | 4:55.13 | 15564 | 37701
3 | 8:22.52 | 4:02.69 | 37702 | 55920
4 | 12:25.46 | 3:13.73 | 55921 | 70468
5 | 15:39.44 | 4:34.42 | 70469 | 91060
6 | 20:14.11 | 3:19.11 | 91061 | 105996
7 | 23:33.22 | 4:38.63 | 105997 | 126909
8 | 28:12.10 | 4:03.72 | 126910 | 145206
9 | 32:16.07 | 4:19.66 | 145207 | 164697
10 | 36:35.73 | 3:42.59 | 164698 | 181406
11 | 40:18.57 | 4:06.06 | 181407 | 199862
12 | 44:24.63 | 4:54.65 | 199863 | 221977
13 | 49:19.53 | 3:34.71 | 221978 | 238098
14 | 52:54.49 | 3:38.00 | 238099 | 254448
15 | 56:32.49 | 3:51.48 | 254449 | 271821
16 | 60:24.22 | 3:40.61 | 271822 | 288382
Характеристики диапазона извлечения и сообщения об ошибках
Выбранный диапазон
Имя файла G:\Music\Rock\Наше\Би-2\Би-2_lossless_[sky-torrent.ru]\2009 - Лунапарк\CD1\Би-2 - Лунапарк.wav
Пиковый уровень 100.0 %
Качество диапазона 100.0 %
CRC копии 094FD143
Копирование... OK
Ошибок не произошло
AccurateRip: сводка
Трек 1 нет в базе данных
Трек 2 нет в базе данных
Трек 3 нет в базе данных
Трек 4 нет в базе данных
Трек 5 нет в базе данных
Трек 6 нет в базе данных
Трек 7 нет в базе данных
Трек 8 нет в базе данных
Трек 9 нет в базе данных
Трек 10 нет в базе данных
Трек 11 нет в базе данных
Трек 12 нет в базе данных
Трек 13 нет в базе данных
Трек 14 нет в базе данных
Трек 15 нет в базе данных
Трек 16 нет в базе данных
Ни одного трека нет в базе AccurateRip
Конец отчёта
CD2:
17. В чужом краю (04:01)
18. Jazz (04:44)
19. Тень (03:49)
20. Все, что было потом (02:41)
21. Сначала (05:51)
22. Другое место (04:54)
23. Солдат 2 (02:52)
Отчет EAC
Exact Audio Copy V0.99 prebeta 4 from 23. January 2008
Отчёт EAC об извлечении, выполненном 21. мая 2009, 22:37
Би-2 / Лунапарк (Bonus CD)
Дисковод: Optiarc DVD RW AD-7170A Adapter: 0 ID: 0
Режим чтения : Достоверность
Использование точного потока : Да
Отключение кэша аудио : Да
Использование указателей C2 : Нет
Коррекция смещения при чтении : 48
Способность читать области Lead-in и Lead-out : Нет
Заполнение пропущенных сэмплов тишиной : Да
Удаление блоков с тишиной в начале и конце : Нет
При вычислениях CRC использовались нулевые сэмплы : Нет
Интерфейс : Встроенный Win32-интерфейс для Win NT/2000
Выходной формат : Внутренние WAV-операции
Формат сэмплов : 44.100 Гц; 16 бит; стерео
TOC извлечённого CD
Трек | Старт | Длительность | Начальный сектор | Конечный сектор
---------------------------------------------------------------------
1 | 0:00.00 | 4:00.47 | 0 | 18046
2 | 4:00.47 | 4:44.16 | 18047 | 39362
3 | 8:44.63 | 3:49.14 | 39363 | 56551
4 | 12:34.02 | 2:41.21 | 56552 | 68647
5 | 15:15.23 | 5:50.59 | 68648 | 94956
6 | 21:06.07 | 4:54.05 | 94957 | 117011
7 | 26:00.12 | 2:52.27 | 117012 | 129938
Характеристики диапазона извлечения и сообщения об ошибках
Выбранный диапазон
Имя файла G:\Music\Rock\Наше\Би-2\Би-2_lossless_[sky-torrent.ru]\2009 - Лунапарк\CD2\Би-2 - Лунапарк (Bonus CD).wav
Пиковый уровень 98.8 %
Качество диапазона 100.0 %
CRC копии C0B1BE30
Копирование... OK
Ошибок не произошло
AccurateRip: сводка
Трек 1 нет в базе данных
Трек 2 нет в базе данных
Трек 3 нет в базе данных
Трек 4 нет в базе данных
Трек 5 нет в базе данных
Трек 6 нет в базе данных
Трек 7 нет в базе данных
Ни одного трека нет в базе AccurateRip
Конец отчёта
2010 О чем говорят мужчины (56:20) (CD-M+112-2)

01. Скандал (03:30)
02. Реки любви (04:09)
03. Вечная призрачная встречная (05:12)
04. Ярмарка невест (05:26)
05. Черный день (03:43)
06. Задеть за живое (07:34)
07. Когда мы станем снегом (04:25)
08. Фавн Dj (04:15)
09. Ее глаза (из Шекспира) (04:53)
10. Падает снег (feat Чичерина) (04:04)
11. Танго (instr) (03:37)
12. Ярмарка ska (instr) (05:33)
Отчет EAC
Exact Audio Copy V0.99 prebeta 5 from 4. May 2009
Отчёт EAC об извлечении, выполненном 4. июля 2010, 16:05
Bi2 / O Chem Govorat Mujchini
Дисковод: SONY DVD RW DW-D22A Adapter: 0 ID: 1
Режим чтения : Достоверность
Использование точного потока : Да
Отключение кэша аудио : Да
Использование указателей C2 : Нет
Коррекция смещения при чтении : 12
Способность читать области Lead-in и Lead-out : Нет
Заполнение пропущенных сэмплов тишиной : Да
Удаление блоков с тишиной в начале и конце : Нет
При вычислениях CRC использовались нулевые сэмплы : Да
Интерфейс : Встроенный Win32-интерфейс для Win NT/2000
Выходной формат : Пользовательский кодировщик
Выбранный битрейт : 1024 kBit/s
Качество : Высокий
Добавление ID3-тэга : Нет
Утилита сжатия : C:\Program Files\Exact Audio Copy\FLAC\FLAC.EXE
Дополнительные параметры : -8 -V %s
TOC извлечённого CD
Трек | Старт | Длительность | Начальный сектор | Конечный сектор
---------------------------------------------------------------------
1 | 0:00.00 | 3:29.49 | 0 | 15723
2 | 3:29.49 | 4:08.43 | 15724 | 34366
3 | 7:38.17 | 5:11.69 | 34367 | 57760
4 | 12:50.11 | 5:26.31 | 57761 | 82241
5 | 18:16.42 | 3:43.37 | 82242 | 99003
6 | 22:00.04 | 7:34.15 | 99004 | 133068
7 | 29:34.19 | 4:25.05 | 133069 | 152948
8 | 33:59.24 | 4:14.46 | 152949 | 172044
9 | 38:13.70 | 4:52.73 | 172045 | 194017
10 | 43:06.68 | 4:03.46 | 194018 | 212288
11 | 47:10.39 | 3:37.09 | 212289 | 228572
12 | 50:47.48 | 5:33.20 | 228573 | 253567
Характеристики диапазона извлечения и сообщения об ошибках
Выбранный диапазон
Имя файла C:\Bi2 - O Chem Govorat Mujchini.wav
Пиковый уровень 100.0 %
Качество диапазона 100.0 %
CRC теста 55193E2B
CRC копии 55193E2B
Копирование... OK
Ошибок не произошло
AccurateRip: сводка
Трек 1 нет в базе данных
Трек 2 нет в базе данных
Трек 3 нет в базе данных
Трек 4 нет в базе данных
Трек 5 нет в базе данных
Трек 6 нет в базе данных
Трек 7 нет в базе данных
Трек 8 нет в базе данных
Трек 9 нет в базе данных
Трек 10 нет в базе данных
Трек 11 нет в базе данных
Трек 12 нет в базе данных
Ни одного трека нет в базе AccurateRip
Конец отчёта
2010 О чем говорят мужчины (подарочное издание) (1:03:16) (CD-M+112-9)

01. Скандал (03:30)
02. Реки любви (04:09)
03. Вечная призрачная встречная (05:12)
04. Ярмарка невест (05:26)
05. Черный день (03:43)
06. Задеть за живое (07:34)
07. Когда мы станем снегом (04:25)
08. Фавн Dj (04:15)
09. Ее глаза (из Шекспира) (04:53)
10. Падает снег (feat Чичерина) (04:04)
11. Танго (instr) (03:37)
12. Ярмарка ska (instr) (05:33)
13. Черный день (yuri usachev remix) (06:55)
Отчет EAC
Exact Audio Copy V0.99 prebeta 5 from 4. May 2009
Отчёт EAC об извлечении, выполненном 15. марта 2010, 21:40
Би-2 / О Чем Говорят Мужчины
Дисковод: TSSTcorpCDDVDW SH-S223Q Adapter: 3 ID: 0
Режим чтения : Достоверность
Использование точного потока : Да
Отключение кэша аудио : Да
Использование указателей C2 : Нет
Коррекция смещения при чтении : 6
Способность читать области Lead-in и Lead-out : Нет
Заполнение пропущенных сэмплов тишиной : Да
Удаление блоков с тишиной в начале и конце : Нет
При вычислениях CRC использовались нулевые сэмплы : Да
Интерфейс : Установленный внешний ASPI-интерфейс
Выходной формат : Пользовательский кодировщик
Выбранный битрейт : 768 kBit/s
Качество : Высокий
Добавление ID3-тэга : Нет
Утилита сжатия : C:\Program Files\Exact Audio Copy\FLAC\FLAC.EXE
Дополнительные параметры : -6 -V -T "ARTIST=%a" -T "TITLE=%t" -T "ALBUM=%g" -T "DATE=%y" -T "TRACKNUMBER=%n" -T "GENRE=%m" -T "COMMENT=%e" %s -o %d
TOC извлечённого CD
Трек | Старт | Длительность | Начальный сектор | Конечный сектор
---------------------------------------------------------------------
1 | 0:00.00 | 3:30.06 | 0 | 15755
2 | 3:30.06 | 4:08.43 | 15756 | 34398
3 | 7:38.49 | 5:11.69 | 34399 | 57792
4 | 12:50.43 | 5:26.31 | 57793 | 82273
5 | 18:16.74 | 3:43.37 | 82274 | 99035
6 | 22:00.36 | 7:34.15 | 99036 | 133100
7 | 29:34.51 | 4:25.05 | 133101 | 152980
8 | 33:59.56 | 4:14.46 | 152981 | 172076
9 | 38:14.27 | 4:52.73 | 172077 | 194049
10 | 43:07.25 | 4:03.46 | 194050 | 212320
11 | 47:10.71 | 3:37.09 | 212321 | 228604
12 | 50:48.05 | 5:33.20 | 228605 | 253599
13 | 56:21.25 | 6:54.60 | 253600 | 284709
14 | 65:48.10 | 4:53.07 | 296110 | 318091
Характеристики диапазона извлечения и сообщения об ошибках
Выбранный диапазон
Имя файла D:\ЕАС\Би-2 - О Чем Говорят Мужчины (2010 Мистерия+) (Loosles)\Би-2 - О Чем Говорят Мужчины.wav
Пиковый уровень 100.0 %
Качество диапазона 99.9 %
CRC теста 5137FC35
CRC копии 5137FC35
Копирование... OK
Ошибок не произошло
AccurateRip: сводка
Трек 1 нет в базе данных
Трек 2 нет в базе данных
Трек 3 нет в базе данных
Трек 4 нет в базе данных
Трек 5 нет в базе данных
Трек 6 нет в базе данных
Трек 7 нет в базе данных
Трек 8 нет в базе данных
Трек 9 нет в базе данных
Трек 10 нет в базе данных
Трек 11 нет в базе данных
Трек 12 нет в базе данных
Трек 13 нет в базе данных
Ни одного трека нет в базе AccurateRip
Конец отчёта
2010 Би-2 и Симфонический Оркестр МВД России (2CD) (2:04:13) (CD-M+178-2/9-1) (CD-M+178-2/9-2)

CD1:
01. Intro (01:40)
02. Зажигать (04:35)
03. Последний герой (04:09)
04. И корабль плывет... (04:15)
05. Достучаться до небес (05:19)
06. Небо без края (feat. И. Желанная) (05:15)
07. Скользкие улицы (feat. Brainstorm) (05:37)
08. Теряю голову (04:07)
09. Фламенко (04:01)
10. Мой рок-н-ролл (feat. Чичерина) (06:16)
11. Моя любовь (05:15)
12. Медленная звезда (feat. Д. Арбенина) (06:09)
13. Реки (05:33)
Отчет EAC
Exact Audio Copy V1.0 beta 1 from 15. November 2010
EAC extraction logfile from 9. December 2010, 0:59
БИ-2 и Симфонический Оркестр МВД России / БИ-2 и Симфонический Оркестр МВД России - CD 1
Used drive : PIONEER DVD-RW DVR-212 Adapter: 8 ID: 0
Read mode : Secure
Utilize accurate stream : Yes
Defeat audio cache : Yes
Make use of C2 pointers : No
Read offset correction : 48
Overread into Lead-In and Lead-Out : No
Fill up missing offset samples with silence : Yes
Delete leading and trailing silent blocks : No
Null samples used in CRC calculations : Yes
Used interface : Installed external ASPI interface
Used output format : Internal WAV Routines
Sample format : 44.100 Hz; 16 Bit; Stereo
TOC of the extracted CD
Track | Start | Length | Start sector | End sector
---------------------------------------------------------
1 | 0:00.00 | 1:40.35 | 0 | 7534
2 | 1:40.35 | 4:35.33 | 7535 | 28192
3 | 6:15.68 | 4:09.14 | 28193 | 46881
4 | 10:25.07 | 4:15.03 | 46882 | 66009
5 | 14:40.10 | 5:18.68 | 66010 | 89927
6 | 19:59.03 | 5:14.60 | 89928 | 113537
7 | 25:13.63 | 5:37.17 | 113538 | 138829
8 | 30:51.05 | 4:07.07 | 138830 | 157361
9 | 34:58.12 | 4:00.46 | 157362 | 175407
10 | 38:58.58 | 6:15.72 | 175408 | 203604
11 | 45:14.55 | 5:14.54 | 203605 | 227208
12 | 50:29.34 | 6:09.26 | 227209 | 254909
13 | 56:38.60 | 5:33.08 | 254910 | 279892
Range status and errors
Selected range
Filename J:\MP3\БИ-2 и Симфонический Оркестр МВД России (2 CD) 2010 (FLAC)\БИ-2 и Симфонический Оркестр МВД России - БИ-2 и Симфонический Оркестр МВД России - CD 1.wav
Peak level 99.4 %
Extraction speed 0.4 X
Range quality 100.0 %
Test CRC FE6FD309
Copy CRC FE6FD309
Copy OK
No errors occurred
AccurateRip summary
Track 1 not present in database
Track 2 not present in database
Track 3 not present in database
Track 4 not present in database
Track 5 not present in database
Track 6 not present in database
Track 7 not present in database
Track 8 not present in database
Track 9 not present in database
Track 10 not present in database
Track 11 not present in database
Track 12 not present in database
Track 13 not present in database
None of the tracks are present in the AccurateRip database
End of status report
CD2:
01. Дурочка (03:55)
02. Научи меня быть счастливым (feat. Вельвет) (04:09)
03. С тобой (03:29)
04. Из-за меня (feat. Д. Арбенина) (05:06)
05. Прощай Берлин (05:11)
06. В этом городе (feat. И. Желанная) (06:17)
07. Варвара (04:39)
08. Забери меня (feat. И. Желанная) (05:23)
09. Небо (03:47)
10. Провидение новой луны (feat. Т. Кузнецова) (04:02)
11. Волки (05:52)
12. Полковнику никто не пишет (05:30)
13. Серебро (04:41)
Отчет EAC
Exact Audio Copy V1.0 beta 1 from 15. November 2010
EAC extraction logfile from 10. December 2010, 10:02
БИ-2 и Симфонический Оркестр МВД России / БИ-2 и Симфонический Оркестр МВД России - CD 2
Used drive : PIONEER DVD-RW DVR-212 Adapter: 8 ID: 0
Read mode : Secure
Utilize accurate stream : Yes
Defeat audio cache : Yes
Make use of C2 pointers : No
Read offset correction : 48
Overread into Lead-In and Lead-Out : No
Fill up missing offset samples with silence : Yes
Delete leading and trailing silent blocks : No
Null samples used in CRC calculations : Yes
Used interface : Installed external ASPI interface
Used output format : Internal WAV Routines
Sample format : 44.100 Hz; 16 Bit; Stereo
TOC of the extracted CD
Track | Start | Length | Start sector | End sector
---------------------------------------------------------
1 | 0:00.00 | 3:54.48 | 0 | 17597
2 | 3:54.48 | 4:09.22 | 17598 | 36294
3 | 8:03.70 | 3:28.50 | 36295 | 51944
4 | 11:32.45 | 5:06.12 | 51945 | 74906
5 | 16:38.57 | 5:11.18 | 74907 | 98249
6 | 21:50.00 | 6:17.19 | 98250 | 126543
7 | 28:07.19 | 4:39.07 | 126544 | 147475
8 | 32:46.26 | 5:22.40 | 147476 | 171665
9 | 38:08.66 | 3:47.08 | 171666 | 188698
10 | 41:55.74 | 4:01.57 | 188699 | 206830
11 | 45:57.56 | 5:51.55 | 206831 | 233210
12 | 51:49.36 | 5:30.20 | 233211 | 257980
13 | 57:19.56 | 4:41.36 | 257981 | 279091
Range status and errors
Selected range
Filename J:\MP3\БИ-2 и Симфонический Оркестр МВД России (2 CD) 2010 (FLAC)\CD 2\БИ-2 и Симфонический Оркестр МВД России - БИ-2 и Симфонический Оркестр МВД России - CD 2.wav
Peak level 99.4 %
Extraction speed 0.5 X
Range quality 100.0 %
Test CRC 75C91257
Copy CRC 75C91257
Copy OK
No errors occurred
AccurateRip summary
Track 1 not present in database
Track 2 not present in database
Track 3 not present in database
Track 4 not present in database
Track 5 not present in database
Track 6 not present in database
Track 7 not present in database
Track 8 not present in database
Track 9 not present in database
Track 10 not present in database
Track 11 not present in database
Track 12 not present in database
Track 13 not present in database
None of the tracks are present in the AccurateRip database
End of status report
2011 Оптимист (интернет-сингл) (43:20)

01. Оптимист (radio edit) (03:58)
02. Любовь и ненависть (06:54)
03. Оптимист (golden space remix by scsi-9) (06:11)
04. Любовь и ненависть (yuri usachev remix) (05:26)
05. Оптимист (sergey sanchez & tomas optimix) (04:45)
06. Любовь и ненависть (sedative mix by punk tv) (05:34)
07. Февраль (feat. Ю. Чичерина) (04:33)
08. Оптимист (full version) (05:22)
09. Оптимист (видео-клип)
10. Любовь и ненависть (Sedative Mix by Punk TV) (видео-клип)
11. Оптимист Live (видео-клип)
12. Любовь и ненависть (видео-клип)
13. Съемки клипа 'Оптимист' (видео-клип)
Оптимист (видео-клип)
Продолжительность: 04:00
Audio: AAC 48000Hz stereo 1536kbps
Video: MPEG4 Video (H264) 1280x720 25.00fps
Любовь и ненависть (Sedative Mix by Punk TV) (видео-клип)
Продолжительность: 05:34
Audio: AAC 44100Hz stereo 1411kbps
Video: MPEG4 Video (H264) 1280x720 24.00fps
Оптимист Live (видео-клип)
Продолжительность: 04:00
Audio: AAC 48000Hz stereo 1536kbps
Video: MPEG4 Video (H264) 1280x720 25.00fps
Любовь и ненависть (видео-клип)
Продолжительность: 06:13
Audio: AAC 48000Hz stereo 1536kbps
Video: MPEG4 Video (H264) 1280x720 25.00fps
Съемки клипа 'Оптимист' (видео-клип)
Продолжительность: 19:07
Audio: AAC 48000Hz stereo 1536kbps
Video: MPEG4 Video (H264) 640x360 24.00fps
Отчет Audiochecker
AUDIOCHECKER v2.0 beta (build 457) - by Dester - opdester@freemail.hu
~~~~~~~~~~~~~~~~~~~~~~~~~~~~~~~~~~
Started at: суббота, 09. 07. 2011. - 8:30.21
8 files found
1 -===- D:\Би-2\Би-2 Официальная дискография\2011 Оптимист (интернет-сингл)\01 - Оптимист (radio edit).flac
Extracted successfully
Conclusion: this track is CDDA with probability 99%
Tempfile successfully deleted.
2 -===- D:\Би-2\Би-2 Официальная дискография\2011 Оптимист (интернет-сингл)\02 - Любовь и ненависть.flac
Extracted successfully
Conclusion: this track is CDDA with probability 100%
Tempfile successfully deleted.
3 -===- D:\Би-2\Би-2 Официальная дискография\2011 Оптимист (интернет-сингл)\03 - Оптимист (golden space remix by scsi-9).flac
Extracted successfully
Conclusion: this track is CDDA with probability 100%
Tempfile successfully deleted.
4 -===- D:\Би-2\Би-2 Официальная дискография\2011 Оптимист (интернет-сингл)\04 - Любовь и ненависть (yuri usachev remix).flac
Extracted successfully
Conclusion: this track is CDDA with probability 99%
Tempfile successfully deleted.
5 -===- D:\Би-2\Би-2 Официальная дискография\2011 Оптимист (интернет-сингл)\05 - Оптимист (sergey sanchez & tomas optimix).flac
Extracted successfully
Conclusion: this track is CDDA with probability 100%
Tempfile successfully deleted.
6 -===- D:\Би-2\Би-2 Официальная дискография\2011 Оптимист (интернет-сингл)\06 - Любовь и ненависть (sedative mix by punk tv).flac
Extracted successfully
Conclusion: this track is CDDA with probability 100%
Tempfile successfully deleted.
7 -===- D:\Би-2\Би-2 Официальная дискография\2011 Оптимист (интернет-сингл)\07 - Февраль (feat. Ю. Чичерина).flac
Extracted successfully
Conclusion: this track is CDDA with probability 100%
Tempfile successfully deleted.
8 -===- D:\Би-2\Би-2 Официальная дискография\2011 Оптимист (интернет-сингл)\08 - Оптимист (full version).flac
Extracted successfully
Conclusion: this track is CDDA with probability 100%
Tempfile successfully deleted.
Finished at: суббота, 09. 07. 2011. - 8:49.52 (operation time: 0:19.31)
2011 Безвоздушная тревога (интернет-сингл) [feat.Тамара Гвердцители] (19:17)

01. Безвоздушная тревога (album version) (05:16)
02. Безвоздушная тревога (remix by yuri usachev) (05:10)
03. Безвоздушная тревога (id&k remix by bagrat vartanian) (05:00)
04. Не свернуть (на огни) (03:52)
Отчет Audiochecker
Started at: пятница, 09. 09. 2011. - 17:12.02
4 files found
1 -===- C:\b2_feat._t._gverdtsiteli_-_bezvozdushnaya_trevoga_(singl)_lossless\01 - Безвоздушная тревога (album version).wav
Conclusion: this track is CDDA with probability 100%
2 -===- C:\b2_feat._t._gverdtsiteli_-_bezvozdushnaya_trevoga_(singl)_lossless\02 - Безвоздушная тревога (remix by yuri usachev).wav
Conclusion: this track is CDDA with probability 100%
3 -===- C:\b2_feat._t._gverdtsiteli_-_bezvozdushnaya_trevoga_(singl)_lossless\03 - Безвоздушная тревога (id&k remix by bagrat vartanian).wav
Conclusion: this track is CDDA with probability 100%
4 -===- C:\b2_feat._t._gverdtsiteli_-_bezvozdushnaya_trevoga_(singl)_lossless\04 - Не свернуть (На огни).wav
Conclusion: this track is CDDA with probability 100%
Finished at: пятница, 09. 09. 2011. - 17:13.51 (operation time: 0:01.49)
2011 Остров (version 2011) (интернет-сингл) (08:51)

01. Остров (version 2011) (Би-2 и Пикник) (03:57)
02. Бегущий по лезвию бритвы (Би-2 feat. Варя Демидова) (04:55)
Отчет Audiochecker
Started at: среда, 26. 10. 2011. - 6:26.01
2 files found
1 -===- D:\Раздачи\Рок lossless\Би-2\Би-2 Официальная дискография\2011 Остров (интернет-сингл)\01 - Остров (version 2011) (Би-2 и Пикник).flac
Extracted successfully
Conclusion: this track is CDDA with probability 100%
Tempfile successfully deleted.
2 -===- D:\Раздачи\Рок lossless\Би-2\Би-2 Официальная дискография\2011 Остров (интернет-сингл)\02 - Бегущий по лезвию бритвы (Би-2 feat. Варя Демидова).flac
Extracted successfully
Conclusion: this track is CDDA with probability 42%
Tempfile successfully deleted.
Finished at: среда, 26. 10. 2011. - 6:29.23 (operation time: 0:03.21)
Би-2 Официальные сборники
2006 Grand Collection (1:10:20)

01. Полковнику никто не пишет (04:54)
02. Варвара (05:00)
03. Моя любовь (04:58)
04. Серебро (04:38)
05. Мяу кисс ми (03:52)
06. Сердце (05:10)
07. Волки (05:30)
08. Восток (03:54)
09. Никто не придет (05:15)
10. Счастье (04:09)
11. Еще не вечер (04:30)
12. Мой рок-н-ролл (feat Чичерина) (06:47)
13. Отражение (04:43)
14. Феллини (live) (feat Сплин) (07:01)
Отчет EAC
Exact Audio Copy V0.99 prebeta 4 from 23. January 2008
Отчёт EAC об извлечении, выполненном 27. апреля 2009, 18:41
Би-2 / Grand Collection
Дисковод: Optiarc DVD RW AD-7190A Adapter: 0 ID: 0
Режим чтения : Достоверность
Использование точного потока : Да
Отключение кэша аудио : Да
Использование указателей C2 : Нет
Коррекция смещения при чтении : 6
Способность читать области Lead-in и Lead-out : Нет
Заполнение пропущенных сэмплов тишиной : Да
Удаление блоков с тишиной в начале и конце : Нет
При вычислениях CRC использовались нулевые сэмплы : Да
Интерфейс : Установленный внешний ASPI-интерфейс
Выходной формат : Внутренние WAV-операции
Формат сэмплов : 44.100 Гц; 16 бит; стерео
TOC извлечённого CD
Трек | Старт | Длительность | Начальный сектор | Конечный сектор
---------------------------------------------------------------------
1 | 0:00.00 | 4:54.02 | 0 | 22051
2 | 4:54.02 | 5:00.04 | 22052 | 44555
3 | 9:54.06 | 4:58.37 | 44556 | 66942
4 | 14:52.43 | 4:37.46 | 66943 | 87763
5 | 19:30.14 | 3:51.65 | 87764 | 105153
6 | 23:22.04 | 5:09.52 | 105154 | 128380
7 | 28:31.56 | 5:29.65 | 128381 | 153120
8 | 34:01.46 | 3:53.67 | 153121 | 170662
9 | 37:55.38 | 5:15.04 | 170663 | 194291
10 | 43:10.42 | 4:08.43 | 194292 | 212934
11 | 47:19.10 | 4:30.34 | 212935 | 233218
12 | 51:49.44 | 6:47.29 | 233219 | 263772
13 | 58:36.73 | 4:42.54 | 263773 | 284976
14 | 63:19.52 | 7:01.13 | 284977 | 316564
Характеристики диапазона извлечения и сообщения об ошибках
Выбранный диапазон
Имя файла D:\Ripped\Би-2 - Grand Collection\Би-2 - Grand Collection.wav
Пиковый уровень 96.8 %
Качество диапазона 99.9 %
CRC копии BF50DE90
Копирование... OK
Ошибок не произошло
Конец отчёта
2006 Лучшие песни (1:18:41)

01. Полковнику никто не пишет (04:52)
02. Варвара (04:59)
03. Моя любовь (04:50)
04. Волки (05:24)
05. Революция (03:36)
06. Она (04:55)
07. Зажигать (05:11)
08. Скользкие улицы (feat Brainstorm) (05:39)
09. Феллини (feat Сплин) (04:37)
10. Мой друг (04:49)
11. И корабль плывет (03:50)
12. Мой рок-н-ролл (feat Чичерина) (06:43)
13. Прощай, Берлин (05:10)
14. Песок (04:14)
15. Ангелы (05:30)
16. Серебро (акустическая версия) (04:23)
Отчет EAC
Exact Audio Copy V0.99 prebeta 5 from 4. May 2009
Отчёт EAC об извлечении, выполненном 15. марта 2010, 1:40
Би-2 / Лучшие песни
Дисковод: MATSHITADVD-RAM UJ-846S Adapter: 1 ID: 1
Режим чтения : Достоверность
Использование точного потока : Да
Отключение кэша аудио : Да
Использование указателей C2 : Нет
Коррекция смещения при чтении : 102
Способность читать области Lead-in и Lead-out : Нет
Заполнение пропущенных сэмплов тишиной : Да
Удаление блоков с тишиной в начале и конце : Нет
При вычислениях CRC использовались нулевые сэмплы : Да
Интерфейс : Встроенный Win32-интерфейс для Win NT/2000
Выходной формат : Внутренние WAV-операции
Формат сэмплов : 44.100 Гц; 16 бит; стерео
TOC извлечённого CD
Трек | Старт | Длительность | Начальный сектор | Конечный сектор
---------------------------------------------------------------------
1 | 0:00.00 | 4:51.63 | 0 | 21887
2 | 4:51.63 | 4:59.26 | 21888 | 44338
3 | 9:51.14 | 4:50.10 | 44339 | 66098
4 | 14:41.24 | 5:23.53 | 66099 | 90376
5 | 20:05.02 | 3:36.37 | 90377 | 106613
6 | 23:41.39 | 4:54.48 | 106614 | 128711
7 | 28:36.12 | 5:10.73 | 128712 | 152034
8 | 33:47.10 | 5:38.70 | 152035 | 177454
9 | 39:26.05 | 4:37.11 | 177455 | 198240
10 | 44:03.16 | 4:48.52 | 198241 | 219892
11 | 48:51.68 | 3:50.02 | 219893 | 237144
12 | 52:41.70 | 6:43.06 | 237145 | 267375
13 | 59:25.01 | 5:09.61 | 267376 | 290611
14 | 64:34.62 | 4:13.47 | 290612 | 309633
15 | 68:48.34 | 5:30.01 | 309634 | 334384
16 | 74:18.35 | 4:22.51 | 334385 | 354085
Характеристики диапазона извлечения и сообщения об ошибках
Выбранный диапазон
Имя файла F:\Игорь\мусор\конвертация\Би-2 - Лучшие песни.wav
Пиковый уровень 100.0 %
Качество диапазона 100.0 %
CRC копии CFC32A2B
Копирование... OK
Ошибок не произошло
AccurateRip: сводка
Трек 1 нет в базе данных
Трек 2 нет в базе данных
Трек 3 нет в базе данных
Трек 4 нет в базе данных
Трек 5 нет в базе данных
Трек 6 нет в базе данных
Трек 7 нет в базе данных
Трек 8 нет в базе данных
Трек 9 нет в базе данных
Трек 10 нет в базе данных
Трек 11 нет в базе данных
Трек 12 нет в базе данных
Трек 13 нет в базе данных
Трек 14 нет в базе данных
Трек 15 нет в базе данных
Трек 16 нет в базе данных
Ни одного трека нет в базе AccurateRip
Конец отчёта
Нечетный воин
2005 Би-2 и Диана Арбенина - Медленная звезда (сингл) (27:49) (MZ 288-2/9)

01. Би-2 и Диана Арбенина - Медленная звезда (05:50)
02. Би-2 - В этом городе (05:33)
03. Би-2 и Диана Арбенина - Медленная звезда (remix by moorush) (04:43)
04. Би-2 и Диана Арбенина - Медленная звезда (ernie o version) (05:47)
05. Би-2 - Нечетный воин (05:47)
Отчет EAC
Отчёт EAC об извлечении, выполненном 4. июля 2008, 22:18 для диска:
Нечётный Воин / Медленная звезда
Дисковод: _NEC DVD_RW ND-3520A Adapter: 1 ID: 0
Режим чтения: Достоверный (C2: нет, Точный поток: да, Отключение кэша: да)
Коррекция смещения при чтении: 48
Способность читать области Lead-in и Lead-out : Нет
Выходной формат: Внутренние WAV-операции
44.100 Гц; 16 бит; стерео
Другие параметры:
Заполнение пропущенных сэмплов тишиной : Да
Удаление блоков с тишиной в начале и конце : Нет
Встроенный Win32-интерфейс для Win NT/2000
Характеристики диапазона извлечения и сообщения об ошибках
Выбранный диапазон
Имя файла C:\Documents and Settings\Администратор\Рабочий стол\Би-2\2005 - Медленная звезда\Нечётный Воин - Медленная звезда.wav
Пиковый уровень 98.9 %
Качество диапазона 99.9 %
CRC 92D04DCF
Копирование... OK
Ошибок не произошло
Конец отчёта
2005 Нечетный воин (2CD) (1:47:53) (MZ 298-2/9-1) (MZ 298-2/9-2)

CD1:
01. Би-2 - Интро (01:15)
02. Би-2 и Диана Арбенина - Медленная звезда (05:51)
03. Brainstorm - Ты не один (04:56)
04. Серьга - Немного солнца (04:26)
05. Неонавт - Все еще боюсь (04:07)
06. Би-2 и Инна Желанная - Небо без края (05:19)
07. Би-2 и David Sterry - Теперь ты знаешь (04:42)
08. Агата Кристи - Уходим в море (04:44)
09. Линда - Звонок (04:38)
10. М. Карасев - Солдат (07:19)
11. Сети - Возвращайся домой (03:30)
Отчет EAC
Отчёт EAC об извлечении, выполненном 30. июня 2008, 17:54 для диска:
Би-2 / Нечетный Воин (CD1)
Дисковод: _NEC DVD_RW ND-3520A Adapter: 1 ID: 0
Режим чтения: Достоверный (C2: нет, Точный поток: да, Отключение кэша: да)
Коррекция смещения при чтении: 48
Способность читать области Lead-in и Lead-out : Нет
Выходной формат: Внутренние WAV-операции
44.100 Гц; 16 бит; стерео
Другие параметры:
Заполнение пропущенных сэмплов тишиной : Да
Удаление блоков с тишиной в начале и конце : Нет
Встроенный Win32-интерфейс для Win NT/2000
Характеристики диапазона извлечения и сообщения об ошибках
Выбранный диапазон
Имя файла C:\Documents and Settings\Администратор\Рабочий стол\Би-2\2005 - Нечётный воин\Би-2 - Нечетный Воин (CD1).wav
Пиковый уровень 100.0 %
Качество диапазона 99.9 %
CRC 357141A3
Копирование... OK
Ошибок не произошло
Конец отчёта
CD2:
12. Лакмус - Приемная дочь (03:25)
13. Би-2 и Carlos Fereira - Flamenco (04:13)
14. Эдмунд Шклярский - Одни и те же (04:54)
15. Олег Нестеров - То из того (04:03)
16. Би-2 - За окнами (07:02)
17. Т. Литвиненко - Здравствуй, грусть (05:45)
18. Би-2 - В этом городе (05:33)
19. Найк Борзов - Адреса (03:44)
20. Би-2 - Нечетный воин (10:11)
21. Лена Т. - Все песни (03:16)
22. Ольга Петрыкина - Слушая ветер (05:01)
Отчет EAC
Отчёт EAC об извлечении, выполненном 30. июня 2008, 18:09 для диска:
Би-2 / Нечетный Воин (CD2)
Дисковод: _NEC DVD_RW ND-3520A Adapter: 1 ID: 0
Режим чтения: Достоверный (C2: нет, Точный поток: да, Отключение кэша: да)
Коррекция смещения при чтении: 48
Способность читать области Lead-in и Lead-out : Нет
Выходной формат: Внутренние WAV-операции
44.100 Гц; 16 бит; стерео
Другие параметры:
Заполнение пропущенных сэмплов тишиной : Да
Удаление блоков с тишиной в начале и конце : Нет
Встроенный Win32-интерфейс для Win NT/2000
Характеристики диапазона извлечения и сообщения об ошибках
Выбранный диапазон
Имя файла C:\Documents and Settings\Администратор\Рабочий стол\Би-2\2005 - Нечётный воин\Би-2 - Нечетный Воин (CD2).wav
Пиковый уровень 98.9 %
Качество диапазона 100.0 %
CRC 58F4F68E
Копирование... OK
Ошибок не произошло
Конец отчёта
2008 Нечетный воин 2 (1:06:19) (CD-M+016-2)

01. Би-2 - Интро (01:49)
02. Би-2 и Агата Кристи - Все, как он сказал (03:57)
03. David Brown (Brazzaville) - Kao Sun Road (03:22)
04. Лакмус и Александр Ф.Скляр - Дождь (04:11)
05. Би-2 и Punk TV - Белый лист (04:27)
06. Truffele - Ребекка (05:53)
07. Роман Суслов и David Brown - После всего (04:46)
08. Сергей Мазаев и Татьяна Литвиненко - Капли о стекло (04:41)
09. Алексей Романов - Разве я не виноват (02:44)
10. Би-2 и Диана Арбенина - Белые одежды (03:46)
11. Louis Frank (Esthetic education) - Michael (04:59)
12. Би-2 и Инна Желанная - Не узнаю (03:39)
13. Би-2 и Агата Кристи - Теряю свет (02:51)
14. Алексей Кортнев и Ирина Богушевская - Сердце ангела (03:47)
15. Би-2 и Диана Арбенина - Дни и ночи (06:06)
16. Би-2 и Агата Кристи - Все, как он сказал (electro-punk 1981 remix) (А. Севидов) (05:22)
Отчет EAC
Exact Audio Copy V0.99 prebeta 3 from 28. July 2007
Отчёт EAC об извлечении, выполненном 5. марта 2008, 21:02
Нечетный воин 2 / Нечетный воин 2
Дисковод: Optiarc DVD RW AD-7191A Adapter: 0 ID: 0
Режим чтения : Достоверность
Использование точного потока : Да
Отключение кэша аудио : Да
Использование указателей C2 : Нет
Коррекция смещения при чтении : 6
Способность читать области Lead-in и Lead-out : Нет
Заполнение пропущенных сэмплов тишиной : Да
Удаление блоков с тишиной в начале и конце : Нет
При вычислениях CRC использовались нулевые сэмплы : Да
Интерфейс : Установленный внешний ASPI-интерфейс
Выходной формат : Внутренние WAV-операции
Формат сэмплов : 44.100 Гц; 16 бит; стерео
TOC извлечённого CD
Трек | Старт | Длительность | Начальный сектор | Конечный сектор
---------------------------------------------------------------------
1 | 0:00.00 | 1:48.71 | 0 | 8170
2 | 1:48.71 | 3:56.45 | 8171 | 25915
3 | 5:45.41 | 3:22.07 | 25916 | 41072
4 | 9:07.48 | 4:10.64 | 41073 | 59886
5 | 13:18.37 | 4:27.04 | 59887 | 79915
6 | 17:45.41 | 5:52.72 | 79916 | 106387
7 | 23:38.38 | 4:46.25 | 106388 | 127862
8 | 28:24.63 | 4:41.23 | 127863 | 148960
9 | 33:06.11 | 2:44.02 | 148961 | 161262
10 | 35:50.13 | 3:45.51 | 161263 | 178188
11 | 39:35.64 | 4:58.51 | 178189 | 200589
12 | 44:34.40 | 3:39.26 | 200590 | 217040
13 | 48:13.66 | 2:50.41 | 217041 | 229831
14 | 51:04.32 | 3:46.56 | 229832 | 246837
15 | 54:51.13 | 6:06.06 | 246838 | 274293
16 | 60:57.19 | 5:21.58 | 274294 | 298426
Характеристики диапазона извлечения и сообщения об ошибках
Выбранный диапазон
Имя файла C:\Нечетный воин 2 - Нечетный воин 2.wav
Пиковый уровень 99.9 %
Качество диапазона 100.0 %
CRC копии A43443AC
Копирование... OK
Ошибок не произошло
Конец отчёта
2011 Нечетный воин 2.5 (0:41:56) (CD-M+179-2/9)

01. Би-2 - Огоньки (04:14)
02. Би-2 и А. Макаревич - И пели по радио песни (02:42)
03. Би-2 и Е. Кауфман - Мой ангел (03:14)
04. Би-2 и Е. Лепокурова - Игры ума (03:27)
05. Би-2 и О. Чехов - Может быть вот (02:19)
06. Би-2 и В. Шумов - Это было просто (02:35)
07. Би-2 и А. Кортнев - Все пройдет (03:05)
08. Би-2 и О. Нестеров - Моя звезда (03:36)
09. Би-2 и Е. Кауфман - Помню (04:02)
10. Би-2 и И. Желанная - Солдат уходит (04:20)
11. Би-2 и Ю. Чичерина - Падает снег (03:44)
12. Би-2 и И. Журавлев - Сoda (04:38)
Отчет EAC
Exact Audio Copy V1.0 beta 1 from 15. November 2010
EAC extraction logfile from 11. April 2011, 16:42
Би-2 / Нечетный воин 2.5
Used drive : PIONEER DVD-RW DVR-212 Adapter: 8 ID: 0
Read mode : Secure
Utilize accurate stream : Yes
Defeat audio cache : Yes
Make use of C2 pointers : No
Read offset correction : 48
Overread into Lead-In and Lead-Out : No
Fill up missing offset samples with silence : Yes
Delete leading and trailing silent blocks : No
Null samples used in CRC calculations : Yes
Used interface : Installed external ASPI interface
Used output format : Internal WAV Routines
Sample format : 44.100 Hz; 16 Bit; Stereo
TOC of the extracted CD
Track | Start | Length | Start sector | End sector
---------------------------------------------------------
1 | 0:00.00 | 4:14.30 | 0 | 19079
2 | 4:14.30 | 2:41.50 | 19080 | 31204
3 | 6:56.05 | 3:13.57 | 31205 | 45736
4 | 10:09.62 | 3:26.39 | 45737 | 61225
5 | 13:36.26 | 2:19.30 | 61226 | 71680
6 | 15:55.56 | 2:35.01 | 71681 | 83306
7 | 18:30.57 | 3:04.59 | 83307 | 97165
8 | 21:35.41 | 3:36.18 | 97166 | 113383
9 | 25:11.59 | 4:01.58 | 113384 | 131516
10 | 29:13.42 | 4:20.36 | 131517 | 151052
11 | 33:34.03 | 3:44.04 | 151053 | 167856
12 | 37:18.07 | 4:38.18 | 167857 | 188724
Range status and errors
Selected range
Filename J:\MP3\БИ-2 - Нечетный воин 2.5 (2011) FLAC\Би-2 - Нечетный воин 2.5.wav
Peak level 100.0 %
Extraction speed 0.7 X
Range quality 100.0 %
Test CRC D4E00012
Copy CRC D4E00012
Copy OK
No errors occurred
AccurateRip summary
Track 1 not present in database
Track 2 not present in database
Track 3 not present in database
Track 4 not present in database
Track 5 not present in database
Track 6 not present in database
Track 7 not present in database
Track 8 not present in database
Track 9 not present in database
Track 10 not present in database
Track 11 not present in database
Track 12 not present in database
None of the tracks are present in the AccurateRip database
End of status report
==== Log checksum F2FC4618F4F1ECF92B136D5498BCD2F1BC9971D4CD0BD937E64836DF9F87C2A1 ====
Chiron
2000 Eve (1:07:52) (MZ-031-2)

01. No order (05:13)
02. Ascent (04:31)
03. Point of no return (04:14)
04. Close my eyes (03:37)
05. Screaming (06:20)
06. Night in Cairo (03:34)
07. Forgotten (04:19)
08. Eve (02:35)
09. Burn (04:57)
10. Into sin (04:03)
11. Lost in time (03:28)
12. Hate (05:16)
13. No order (Starpopmix by Real Life) (04:12)
14. Burn (Greenmix by Ernie) (06:03)
15. Hate (Devilmix by Adam Calaitzis) (05:29)
Отчет EAC
Отчёт EAC об извлечении, выполненном 29. июня 2008, 22:47 для диска:
Chiron / Eve
Дисковод: _NEC DVD_RW ND-3520A Adapter: 1 ID: 0
Режим чтения: Достоверный (C2: нет, Точный поток: да, Отключение кэша: да)
Коррекция смещения при чтении: 48
Способность читать области Lead-in и Lead-out : Нет
Выходной формат: Внутренние WAV-операции
44.100 Гц; 16 бит; стерео
Другие параметры:
Заполнение пропущенных сэмплов тишиной : Да
Удаление блоков с тишиной в начале и конце : Нет
Встроенный Win32-интерфейс для Win NT/2000
Характеристики диапазона извлечения и сообщения об ошибках
Выбранный диапазон
Имя файла C:\Documents and Settings\Администратор\Рабочий стол\Би-2\2000 - Eve (Chiron)\Chiron - Eve.wav
Пиковый уровень 99.8 %
Качество диапазона 99.9 %
CRC 8ACD9CD6
Копирование... OK
Ошибок не произошло
Конец отчёта
2004 Bleed (54:40) (MZ-220-2)

01. Hearts of fury (05:08)
02. I didn't want this (04:47)
03. Crying in the night (04:26)
04. Far from me (04:12)
05. Bleed (03:19)
06. Love is (04:17)
07. Strangers (04:06)
08. Disenchanted (04:26)
09. Visions (04:14)
10. Slipping away (08:12)
11. The future (01:59)
12. Nikki (05:36)
13. Слайд-шоу
14. I didn't want this (видео-клип)
15. Close my eyes (видео-клип)
Слайд-шоу
Продолжительность: 04:16
Audio: PCM 32000Hz mono 512kbps
Video: SVQ3 320x240 25.00fps
I didn't want this (видео-клип)
Продолжительность: 05:12
Audio: PCM 22050Hz mono 352kbps
Video: SVQ3 320x240 25.00fps
Close my eyes (видео-клип)
Продолжительность: 03:58
Audio: PCM 22050Hz mono 352kbps
Video: SVQ3 320x240 25.00fps
Отчет EAC
Отчёт EAC об извлечении, выполненном 29. июня 2008, 22:25 для диска:
Chiron / Bleed
Дисковод: _NEC DVD_RW ND-3520A Adapter: 1 ID: 0
Режим чтения: Достоверный (C2: нет, Точный поток: да, Отключение кэша: да)
Коррекция смещения при чтении: 48
Способность читать области Lead-in и Lead-out : Нет
Выходной формат: Внутренние WAV-операции
44.100 Гц; 16 бит; стерео
Другие параметры:
Заполнение пропущенных сэмплов тишиной : Да
Удаление блоков с тишиной в начале и конце : Нет
Встроенный Win32-интерфейс для Win NT/2000
Характеристики диапазона извлечения и сообщения об ошибках
Выбранный диапазон
Имя файла C:\Documents and Settings\Администратор\Рабочий стол\Би-2\2004 - Bleed (Chiron)\Chiron - Bleed.wav
Пиковый уровень 98.5 %
Качество диапазона 99.9 %
CRC B8B1A4A5
Копирование... OK
Ошибок не произошло
Конец отчёта
Дополнительная информация
Формат альбомов:
Официальная дискография:
1998 Бесполая и грустная любовь : APE(image + .cue)
2000 Би-2 : APE(image + .cue)
2000 Би-2 (переиздание) : APE(image + .cue)
2000 Серебро (сингл) : FLAC(image + .cue)
2001 Волки (макси-сингл) : APE(image + .cue)
2001 Fellini tour : APE(image + .cue)
2001 Моя любовь (сингл) : APE(image + .cue)
2001 Мяу кисс ми : APE(image + .cue)
2002 Drum(a) : APE(image + .cue)
2003 Песок (сингл) : APE(image + .cue)
2004 Иnомарки : APE(image + .cue)
2004 Бесполая и грустная любовь (переиздание) (2CD) : APE(image + .cue)
2004 Мяу кисс ми (подарочное издание) : FLAC(image + .cue)
2005 Fellini tour (переиздание) : FLAC(image + .cue)
2006 Молоко : APE(image + .cue)
2006 Молоко (подарочное издание) : FLAC(image + .cue)
2008 Муза (ep) : FLAC(image + .cue)
2009 Лунапарк (подарочное издание) (2CD) : FLAC(image + .cue)
2010 О чем говорят мужчины : FLAC(image + .cue)
2010 О чем говорят мужчины (подарочное издание) : FLAC(image + .cue)
2010 Би-2 и Симфонический Оркестр МВД России (2CD) : FLAC(image + .cue)
2011 Оптимист (интернет-сингл) : FLAC (tracks)
2011 Безвоздушная тревога (интернет-сингл) [feat.Тамара Гвердцители] : FLAC (tracks)
2011 Остров (version 2011) (интернет-сингл) : FLAC (tracks)
Официальные сборники:
2006 Grand Collection : APE(image +.cue)
2006 Лучшие песни : FLAC(image + .cue)
Нечетный воин:
2005 Би-2 и Диана Арбенина - Медленная звезда (сингл) : APE(image + .cue)
2005 Нечетный воин (2CD) : APE(image + .cue)
2008 Нечетный воин 2 : APE(image + .cue)
2011 Нечетный воин 2.5 : FLAC(image + .cue)
Chiron
2000 Eve : APE(image + .cue)
2004 Bleed : APE(image + .cue)
Раздача обновлена!!!
Обновление от 26.10.11. Всем, кто скачал торрент-файл ДО этой даты настоятельно прочитать
Что добавилось\изменилось
Добавлено:
1. Альбом 2011 Остров (version 2011) (интернет-сингл)
2. Пропущенные ковры к альбомам 2001 Fellini tour и 2011 Нечетный воин 2.5
Большое спасибо за обнаруженный пропуск rav1417
Изменено:
В коврах альбома 2001 Fellini tour немного переименован порядок ковриков.
Теперь:
Б2-FT03.jpg -> Б2-FT04.jpg
Б2-FT04.jpg -> Б2-FT05.jpg
Как быстро встать на раздачу тем, кто УЖЕ скачал\скачивает раздачу (ЧИТАТЬ ОБЯЗАТЕЛЬНО!)
Перехешируйте раздачу и докачайте недостающий альбом и ковры.
Два ковра не совпадут по хешу и перекачаются (Примерно 5 MB)
-
Ссылки на lossless-альбомы не вошедшие в дискографию
Би-2 (Би2) - Бульвар звезд (неофициальный сборник)
http://rutracker.org/forum/viewtopic.php?t=2770541



Вернуться к началу
 Профиль Отправить личное сообщение  
 
   Похожие торренты   Автор   Торрент   Размер 
В этой теме нет новых непрочитанных сообщений. Беломорканал - "Лагеря" (Избранное) (2000) [FLAC|Lossless|image + .cue]

salma3

0 | 1

498.17 МБ

В этой теме нет новых непрочитанных сообщений. Wolfpakk - Дискография [2011 - 2015, Hard Rock, MP3]

salma3

0 | 0

400.81 МБ

В этой теме нет новых непрочитанных сообщений. Татьяна 3 / Tatiana 3 (1998) DVDRip | Rus

salma3

186 | 19

2.04 ГБ

В этой теме нет новых непрочитанных сообщений. Шадрак / Shadrach [Драма, 1998] WEB-DL 1080p, Mvo

salma3

0 | 0

3.38 ГБ

В этой теме нет новых непрочитанных сообщений. Переполох / Hurlyburly [Драма, 1998] DVDRip, Mvo

salma3

17 | 38

1.45 ГБ

В этой теме нет новых непрочитанных сообщений. Шадрак / Shadrach [драма, 1998] DVDRip, Mvo

salma3

10 | 8

1.46 ГБ

В этой теме нет новых непрочитанных сообщений. Дантист 2 / The Dentist 2 [ужасы, 1998] WEB-DL 720p, Dvo

salma3

0 | 0

3.35 ГБ


Начать новую тему Ответить на тему  [ 1 сообщение ] 




Для Мосгорсуда, Роскомнадзора и рекламодателей:: mosgorsud-torrent[собачка]yandex.ru
cron