Оценка торрента
5 100%  100%  [ 1 ]
4 0%  0%  [ 0 ]
3 0%  0%  [ 0 ]
2 0%  0%  [ 0 ]
1 0%  0%  [ 0 ]
Всего голосов : 1
Торрент файл
скачать торрент магнет ссылка Добавлен: 29 май 2010, 20:51
Размер: 335 МБ
Сидеров: 0
Личеров: 3
Статус: (PriZraK)
Автор

СообщениеДобавлено: 29 май 2010, 20:51 

Не в сети
Дата регистрации:
22 май 2010, 10:40
Спасибо: 19 / 0
Сообщения: 20
Annihilator - Annihilator


Жанр: Thrash Metal
Год выпуска диска: 2010
Производитель диска: Canada (Ottawa, Ontario/Vancouver, British Columbia)
Аудио кодек: FLAC
Тип рипа: tracks + cue
Битрейт аудио: lossless
Продолжительность: 48:46
Источник: MediaBoom.org

Трэклист:
1. The Trend 07:04
2. Coward 04:21
3. Ambush 03:21
4. Betrayed 04:34
5. 25 Seconds 04:49
6. Nowhere To Go 05:07
7. The Other Side 04:19
8. Death In Your Eyes 05:58
9. Payback 04:47
10. Romeo Delight 04:26
Exact Audio Copy V0.99 prebeta 4 from 23. January 2008

EAC extraction logfile from 19. May 2010, 12:55

Annihilator / Annihilator

Used drive : ATAPI DVD A DH16A6S Adapter: 2 ID: 1

Read mode : Secure
Utilize accurate stream : Yes
Defeat audio cache : Yes
Make use of C2 pointers : No

Read offset correction : 6
Overread into Lead-In and Lead-Out : No
Fill up missing offset samples with silence : Yes
Delete leading and trailing silent blocks : No
Null samples used in CRC calculations : Yes
Used interface : Native Win32 interface for Win NT & 2000
Gap handling : Appended to previous track

Used output format : User Defined Encoder
Selected bitrate : 128 kBit/s
Quality : High
Add ID3 tag : No
Command line compressor : C:\Program Files\Exact Audio Copy\Flac\flac.exe
Additional command line options : -V -8 -T "artist=%a" -T "title=%t" -T "album=%g" -T "date=%y" -T "tracknumber=%n" -T "genre=%m" %s

TOC of the extracted CD

Track | Start | Length | Start sector | End sector
---------------------------------------------------------
1 | 0:00.00 | 7:04.12 | 0 | 31811
2 | 7:04.12 | 4:21.52 | 31812 | 51438
3 | 11:25.64 | 3:21.51 | 51439 | 66564
4 | 14:47.40 | 4:34.25 | 66565 | 87139
5 | 19:21.65 | 4:48.73 | 87140 | 108812
6 | 24:10.63 | 5:07.42 | 108813 | 131879
7 | 29:18.30 | 4:19.66 | 131880 | 151370
8 | 33:38.21 | 5:58.25 | 151371 | 178245
9 | 39:36.46 | 4:47.49 | 178246 | 199819
10 | 44:24.20 | 4:25.67 | 199820 | 219761

Track 1

Filename E:\Annihilator - ST 2010 FLAC\Annihilator\Annihilator\01 - The Trend.wav

Pre-gap length 0:00:02.00

Peak level 98.9 %
Track quality 100.0 %
Test CRC B4DEA1C1
Copy CRC B4DEA1C1
Track not present in AccurateRip database
Copy OK

Track 2

Filename E:\Annihilator - ST 2010 FLAC\Annihilator\Annihilator\02 - Coward.wav

Peak level 98.9 %
Track quality 100.0 %
Test CRC 54350632
Copy CRC 54350632
Track not present in AccurateRip database
Copy OK

Track 3

Filename E:\Annihilator - ST 2010 FLAC\Annihilator\Annihilator\03 - Ambush.wav

Peak level 98.9 %
Track quality 100.0 %
Test CRC ADCCD001
Copy CRC ADCCD001
Track not present in AccurateRip database
Copy OK

Track 4

Filename E:\Annihilator - ST 2010 FLAC\Annihilator\Annihilator\04 - Betrayed.wav

Pre-gap length 0:00:01.17

Peak level 98.9 %
Track quality 100.0 %
Test CRC D911ED6E
Copy CRC D911ED6E
Track not present in AccurateRip database
Copy OK

Track 5

Filename E:\Annihilator - ST 2010 FLAC\Annihilator\Annihilator\05 - 25 Seconds.wav

Pre-gap length 0:00:00.38

Peak level 98.9 %
Track quality 100.0 %
Test CRC 8EDA5E4C
Copy CRC 8EDA5E4C
Track not present in AccurateRip database
Copy OK

Track 6

Filename E:\Annihilator - ST 2010 FLAC\Annihilator\Annihilator\06 - Nowhere To Go.wav

Pre-gap length 0:00:00.90

Peak level 98.9 %
Track quality 100.0 %
Test CRC 0164DE28
Copy CRC 0164DE28
Track not present in AccurateRip database
Copy OK

Track 7

Filename E:\Annihilator - ST 2010 FLAC\Annihilator\Annihilator\07 - The Other Side.wav

Pre-gap length 0:00:00.30

Peak level 98.9 %
Track quality 100.0 %
Test CRC 58C86B5F
Copy CRC 58C86B5F
Track not present in AccurateRip database
Copy OK

Track 8

Filename E:\Annihilator - ST 2010 FLAC\Annihilator\Annihilator\08 - Death In Your Eyes.wav

Pre-gap length 0:00:00.76

Peak level 98.9 %
Track quality 100.0 %
Test CRC 4E2A4C93
Copy CRC 4E2A4C93
Track not present in AccurateRip database
Copy OK

Track 9

Filename E:\Annihilator - ST 2010 FLAC\Annihilator\Annihilator\09 - Payback.wav

Pre-gap length 0:00:00.30

Peak level 98.9 %
Track quality 100.0 %
Test CRC 7D088C8B
Copy CRC 7D088C8B
Track not present in AccurateRip database
Copy OK

Track 10

Filename E:\Annihilator - ST 2010 FLAC\Annihilator\Annihilator\10 - Romeo Delight.wav

Pre-gap length 0:00:00.90

Peak level 98.8 %
Track quality 100.0 %
Test CRC 7985188E
Copy CRC 7985188E
Track not present in AccurateRip database
Copy OK

None of the tracks are present in the AccurateRip database

No errors occurred

End of status report
REM GENRE Thrash
REM DATE 2010
REM DISCID 8D0B720A
REM COMMENT "ExactAudioCopy v0.99pb4"
PERFORMER "Annihilator"
TITLE "Annihilator"
FILE "Annihilator\Annihilator\01 - The Trend.wav" WAVE
TRACK 01 AUDIO
TITLE "The Trend"
PERFORMER "Annihilator"
INDEX 01 00:00:00
FILE "Annihilator\Annihilator\02 - Coward.wav" WAVE
TRACK 02 AUDIO
TITLE "Coward"
PERFORMER "Annihilator"
INDEX 01 00:00:00
FILE "Annihilator\Annihilator\03 - Ambush.wav" WAVE
TRACK 03 AUDIO
TITLE "Ambush"
PERFORMER "Annihilator"
INDEX 01 00:00:00
TRACK 04 AUDIO
TITLE "Betrayed"
PERFORMER "Annihilator"
INDEX 00 03:20:38
FILE "Annihilator\Annihilator\04 - Betrayed.wav" WAVE
INDEX 01 00:00:00
TRACK 05 AUDIO
TITLE "25 Seconds"
PERFORMER "Annihilator"
INDEX 00 04:33:71
FILE "Annihilator\Annihilator\05 - 25 Seconds.wav" WAVE
INDEX 01 00:00:00
TRACK 06 AUDIO
TITLE "Nowhere To Go"
PERFORMER "Annihilator"
INDEX 00 04:48:05
FILE "Annihilator\Annihilator\06 - Nowhere To Go.wav" WAVE
INDEX 01 00:00:00
TRACK 07 AUDIO
TITLE "The Other Side"
PERFORMER "Annihilator"
INDEX 00 05:07:19
FILE "Annihilator\Annihilator\07 - The Other Side.wav" WAVE
INDEX 01 00:00:00
TRACK 08 AUDIO
TITLE "Death In Your Eyes"
PERFORMER "Annihilator"
INDEX 00 04:19:09
FILE "Annihilator\Annihilator\08 - Death In Your Eyes.wav" WAVE
INDEX 01 00:00:00
TRACK 09 AUDIO
TITLE "Payback"
PERFORMER "Annihilator"
INDEX 00 05:58:02
FILE "Annihilator\Annihilator\09 - Payback.wav" WAVE
INDEX 01 00:00:00
TRACK 10 AUDIO
TITLE "Romeo Delight"
PERFORMER "Annihilator"
INDEX 00 04:46:56
FILE "Annihilator\Annihilator\10 - Romeo Delight.wav" WAVE
INDEX 01 00:00:00
http://www.annihilatormetal.com/



Вернуться к началу
 Профиль Отправить личное сообщение  
 
   Похожие торренты   Автор   Торрент   Размер 
В этой теме нет новых непрочитанных сообщений. Беломорканал - "Лагеря" (Избранное) (2000) [FLAC|Lossless|image + .cue]

salma3

0 | 1

498.17 МБ

В этой теме нет новых непрочитанных сообщений. Frankie Goes To Hollywood - Sex Mix (2012) FLAC (*.flac)

romanR10

19 | 3

935.93 МБ

В этой теме нет новых непрочитанных сообщений. Сборник - Rock Collection 1997 [Rock, Metal, 2016] FLAC

salma3

20 | 4

12.43 ГБ

В этой теме нет новых непрочитанных сообщений. Danny Barnes - Stove Up (2017) FLAC

salma3

14 | 3

278.42 МБ

В этой теме нет новых непрочитанных сообщений. Frank Boeijen - Het Mooiste & Het Beste 2 [3CD+DVD] (2017) FLAC

salma3

9 | 5

1.16 ГБ

В этой теме нет новых непрочитанных сообщений. Bush - Black And White Rainbows (2017) FLAC

salma3

113 | 6

382.57 МБ

В этой теме нет новых непрочитанных сообщений. Frankie Goes To Hollywood - Relax [Maxi-Single] (1983) FLAC

romanR10

0 | 0

97.82 МБ


Начать новую тему Ответить на тему  [ 1 сообщение ] 




Для Мосгорсуда, Роскомнадзора и рекламодателей:: mosgorsud-torrent[собачка]yandex.ru
cron