Торрент файл
скачать торрент магнет ссылка Добавлен: 13 май 2019, 20:54
Размер: 17.94 ГБ
Сидеров: 0
Личеров: 0
Статус: (salma3)
Автор

СообщениеДобавлено: 13 май 2019, 20:54 

Не в сети
Супермодератор
Аватара пользователя
Дата регистрации:
15 фев 2012, 16:44
Возраст: 29
Спасибо: 7984 / 2147
Сообщения: 88139
Год выхода: 2006
Жанр: мультфильм, комедия, приключения
Режиссер: Тим Джонсон, Кэри Киркпатрик

В ролях: Брюс Уиллис, Стив Карелл, Гарри Шендлинг, Ванда Сайкс, Уильям Шетнер, Ник Нолти, Томас Хейден Чёрч, Эллисон Дженни, Юджин Леви, Кэтрин О’Хара

О фильме:
Пробудившаяся весной от зимней спячки черепаха Верн и ее лесные друзья обнаруживают, что на территории их обитания выросла высоченная живая изгородь. Находчивый енот ЭрДжей объясняет своим бестолковым товарищам, что мир, находящийся за изгородью, это «ворота в прекрасную жизнь», так как там обитают странные существа, называемые людьми, которые живут, чтобы есть, а не едят, чтобы жить. Славящийся своей осторожностью и подозрительностью Верн хочет удержать лесную братию от искушения оказаться по ту сторону изгороди. Однако настырный ЭрДжей доказывает всем, что отходы человеческой жизнедеятельности - это настоящее сокровище для животных. Он убеждает своих собратьев, что следует отбросить страх и воспользоваться таким удачным соседством. В итоге ЭрДжей и Верн заключают дружеский союз и начинают наслаждаться плодами цивилизации…



Страна: США
Продолжительность: 01:23:38
Перевод: Профессиональный (дублированный)

Файл
Кодек: h.264
Качество: BDRemux 1080p
Видео: MPEG-4 AVC, 1920x1080, 23,976 fps, 28800 Kbps
Аудио1: Русский (AC-3, 6 ch, 384 kb/s)
Аудио2: Английский (DTS, 6 сh, 1 509 kb/s)
Субтитры: Русские, английские.

Video
ID : 1
Format : AVC
Format/Info : Advanced Video Codec
Format profile : High@L4.1
Format settings : CABAC / 4 Ref Frames
Format settings, CABAC : Yes
Format settings, Reference : 4 frames
Codec ID : V_MPEG4/ISO/AVC
Duration : 1 h 23 min
Bit rate mode : Variable
Bit rate : 28.8 Mb/s
Maximum bit rate : 32.0 Mb/s
Width : 1 920 pixels
Height : 1 080 pixels
Display aspect ratio : 16:9
Frame rate mode : Constant
Frame rate : 23.976 (24000/1001) FPS
Color space : YUV
Chroma subsampling : 4:2:0
Bit depth : 8 bits
Scan type : Progressive
Bits/(Pixel*Frame) : 0.580
Stream size : 16.8 GiB (94%)
Language : English
Default : No
Forced : No

Audio #1
ID : 2
Format : AC-3
Format/Info : Audio Coding 3
Codec ID : A_AC3
Duration : 1 h 23 min
Bit rate : 384 kb/s
Channel(s) : 6 channels
Sampling rate : 48.0 kHz
Frame rate : 31.250 FPS (1536 SPF)
Compression mode : Lossy
Stream size : 229 MiB (1%)
Title : Дубляж
Language : Russian
Default : Yes
Forced : Yes

Audio #2
ID : 3
Format : DTS
Format/Info : Digital Theater Systems
Codec ID : A_DTS
Duration : 1 h 23 min
Bit rate mode : Constant
Bit rate : 1 509 kb/s
Channel(s) : 6 channels
Channel layout : C L R Ls Rs LFE
Sampling rate : 48.0 kHz
Frame rate : 93.750 FPS (512 SPF)
Bit depth : 24 bits
Compression mode : Lossy
Stream size : 901 MiB (5%)
Title : Оригинал
Language : English
Default : No
Forced : No

Text #1
ID : 4
Format : UTF-8
Codec ID : S_TEXT/UTF8
Codec ID/Info : UTF-8 Plain Text
Duration : 1 h 22 min
Bit rate : 105 b/s
Count of elements : 1150
Stream size : 63.8 KiB (0%)
Title : Rus Full
Language : Russian
Default : No
Forced : No

Text #2
ID : 5
Format : PGS
Muxing mode : zlib
Codec ID : S_HDMV/PGS
Codec ID/Info : Picture based subtitle format used on BDs/HD-DVDs
Duration : 1 h 22 min
Bit rate : 50.6 kb/s
Count of elements : 3007
Stream size : 29.9 MiB (0%)
Title : Eng Full
Language : English
Default : No
Forced : No

Menu
00:00:00.000 : en:Chapter 01
00:04:11.334 : en:Chapter 02
00:08:05.693 : en:Chapter 03
00:11:55.965 : en:Chapter 04
00:14:12.476 : en:Chapter 05
00:19:16.238 : en:Chapter 06
00:24:23.795 : en:Chapter 07
00:28:08.269 : en:Chapter 08
00:32:07.467 : en:Chapter 09
00:34:41.204 : en:Chapter 10
00:40:22.336 : en:Chapter 11
00:44:49.436 : en:Chapter 12
00:49:26.880 : en:Chapter 13
00:54:20.090 : en:Chapter 14
00:58:13.531 : en:Chapter 15
01:03:33.434 : en:Chapter 16
01:09:49.351 : en:Chapter 17
01:15:54.132 : en:Chapter 18



Релиз от: ~NoobSaibot~


_________________
Проголосуй за трекер Открытый торрент трекер - RUS-MEDIA.ORG

Проголосуй Открытый торрент трекер - RUS-MEDIA.ORG


Вернуться к началу
 Профиль  
 
   Похожие торренты   Автор   Торрент   Размер 
В этой теме нет новых непрочитанных сообщений. Лесная братва / Over the Hedge [мультфильм, комедия, приключения, 2006] BDRip 1080p-HEVC, Dub

salma3

0 | 0

4.98 ГБ

В этой теме нет новых непрочитанных сообщений. Лесная братва / Over the Hedge [мультфильм, комедия, приключения, 2006] BDRip-AVC, Dub

salma3

0 | 0

1.82 ГБ

В этой теме нет новых непрочитанных сообщений. Подводная братва / Shark Tale [мультфильм, комедия, приключения, семейный, 2004] WEBRip 1080p, Dub+Mvo+Dvo+Avo+Sub

salma3

47 | 13

7.05 ГБ

В этой теме нет новых непрочитанных сообщений. Онигири / Onigiri [01-13 из 13] ( мультфильм, фэнтези, боевик, комедия, приключения, 2016) BDRemux 1080p | Sub

marya111

46 | 37

12.27 ГБ

В этой теме нет новых непрочитанных сообщений. Снежные гонки / Racetime [Мультфильм, комедия, приключения, 2018] BDRemux 1080p, Dub [iTunes]

salma3

0 | 0

17.45 ГБ

В этой теме нет новых непрочитанных сообщений. Тачки 3 / Cars 3 [Мультфильм, комедия, приключения, 2017] BDRemux 1080p, Dub+Sub [Лицензия] [3D-Video]

salma3

6 | 5

26.17 ГБ

В этой теме нет новых непрочитанных сообщений. В поисках Дори / Finding Dory [Мультфильм, комедия, приключения, 2016] BDRemux 1080p, Dub [Лицензия]

salma3

0 | 0

25.25 ГБ


Начать новую тему Ответить на тему  [ 1 сообщение ] 




Для Мосгорсуда, Роскомнадзора и рекламодателей:: mosgorsud-torrent[собачка]yandex.ru
cron