Торрент файл
скачать торрент магнет ссылка Добавлен: 27 фев 2018, 14:32
Размер: 7.47 ГБ
Сидеров: 0
Личеров: 0
Статус: (salma3)
Автор

СообщениеДобавлено: 27 фев 2018, 14:32 

Не в сети
Супермодератор
Аватара пользователя
Дата регистрации:
15 фев 2012, 16:44
Возраст: 29
Спасибо: 7944 / 2147
Сообщения: 86722
Год выпуска: 2017
Страна: Великобритания
Жанр: Криминал, драма, триллер, детектив
Продолжительность: ~ 00:48:00

Перевод 1: Профессиональный (многоголосый закадровый) LostFilm
Перевод 2: Профессиональный (многоголосый закадровый) Good People

Режиссёр: Бенжамин Росс
В ролях: Шон Бин, Мэгги Кронин, Шон Блэйни, Брирс Энтони, Бобби Марно, Энтони Моррис и др.

Описание: Инспектор полиции Джон Марлотт разыскивает маньяка, возомнившего себя Франкенштейном. Злодей воплощает действия книжного доктора в реальность — создает монстра из частей человеческих тел. Марлотт, обнаруживший одно из ужасных созданий убийцы, вынужден работать тайно и в одиночку бродить по Лондону 19-го века в поисках чудовища.

Доп. информация: Работа со звуком, сбор материала и оформление релиза - ZgurVas


Качество: WEBDLRip 1080p (Netflix)
Контейнер: MKV
Видео: AVC, 1920x1080 (16:9), 25 fps, 3.5 Mbps
Аудио 1: Russian AC3, 48 KHz, 2 ch, 192 kbps (LostFilm)
Аудио 2: Russian AC3, 48 KHz, 2 ch, 192 kbps (Good People)
Аудио 3: English AC3, 48 KHz, 6 ch, 384 kbps (Original)
Субтитры: Английские, немецкие, испанские, французские, голландские
Реклама: Отсутствует

Общее
Уникальный идентификатор : 183417095615026778991400554486845385252 (0x89FCD901472F18ECB9A99715FDF7AA24)
Полное имя : D:The.Frankenstein.Chronicles.S02.1080p.WEB-DL.2xRus.EngThe.Frankenstein.Chronicles.S02E01.Prodigal.Son.1080p.WEB-DL.2xRus.Eng.mkv
Формат : Matroska
Версия формата : Version 4 / Version 2
Размер файла : 1,32 Гбайт
Продолжительность : 44 м. 40 с.
Режим общего битрейта : Переменный
Общий поток : 4239 Кбит/сек
Название фильма : Блудный сын
Дата кодирования : UTC 2018-02-21 13:27:42
Программа кодирования : mkvmerge v18.0.0 ('Apricity') 32-bit
Библиотека кодирования : libebml v1.3.5 + libmatroska v1.4.8
Обложка : Yes
Attachments : cover.the.frankenstein.chronicles.jpg

Видео
Идентификатор : 1
Формат : AVC
Формат/Информация : Advanced Video Codec
Профиль формата : Main@L4
Настройки формата : CABAC / 3 Ref Frames
Параметр CABAC формата : Да
Параметр RefFrames формата : 3 кадра
Идентификатор кодека : V_MPEG4/ISO/AVC
Продолжительность : 44 м. 40 с.
Вид битрейта : Переменный
Битрейт : 3480 Кбит/сек
Максимальный битрейт : 5220 Кбит/сек
Ширина : 1920 пикселей
Высота : 1080 пикселей
Соотношение сторон : 16:9
Режим частоты кадров : Постоянный
Частота кадров : 25,000 кадров/сек
Цветовое пространство : YUV
Субдискретизация насыщенности : 4:2:0
Битовая глубина : 8 бит
Тип развёртки : Прогрессивная
Бит/(Пиксели*Кадры) : 0.067
Размер потока : 1,08 Гбайт (82%)
Библиотека кодирования : x264 core 148 r2714 2daf636
Настройки программы : cabac=1 / ref=3 / deblock=1:0:0 / analyse=0x1:0x111 / me=umh / subme=10 / psy=1 / psy_rd=1.00:0.00 / mixed_ref=1 / me_range=24 / chroma_me=1 / trellis=2 / 8x8dct=0 / cqm=0 / deadzone=21,11 / fast_pskip=1 / chroma_qp_offset=-2 / threads=8 / lookahead_threads=1 / sliced_threads=0 / nr=0 / decimate=1 / interlaced=0 / bluray_compat=0 / stitchable=1 / constrained_intra=0 / bframes=2 / b_pyramid=0 / b_adapt=2 / b_bias=0 / direct=3 / weightb=1 / open_gop=0 / weightp=2 / keyint=50 / keyint_min=26 / scenecut=0 / intra_refresh=0 / rc_lookahead=50 / rc=2pass / mbtree=1 / bitrate=3480 / ratetol=1.0 / qcomp=0.50 / qpmin=6 / qpmax=51 / qpstep=4 / cplxblur=20.0 / qblur=0.5 / vbv_maxrate=5220 / vbv_bufsize=6960 / nal_hrd=vbr / filler=0 / ip_ratio=1.40 / aq=1:1.00
Default : Да
Forced : Нет

Аудио #1
Идентификатор : 2
Формат : AC-3
Формат/Информация : Audio Coding 3
Идентификатор кодека : A_AC3
Продолжительность : 44 м. 40 с.
Вид битрейта : Постоянный
Битрейт : 192 Кбит/сек
Каналы : 2 канала
Расположение каналов : Front: L R
Частота : 48,0 КГц
Частота кадров : 31,250 кадров/сек (1536 SPF)
Битовая глубина : 16 бит
Метод сжатия : С потерями
Размер потока : 61,3 Мбайт (5%)
Заголовок : AC3 2.0 @ 192 kbps - MVO, LostFilm
Язык : Russian
ServiceKind : Complete Main
Default : Да
Forced : Нет

Аудио #2
Идентификатор : 3
Формат : AC-3
Формат/Информация : Audio Coding 3
Идентификатор кодека : A_AC3
Продолжительность : 44 м. 40 с.
Вид битрейта : Постоянный
Битрейт : 192 Кбит/сек
Каналы : 2 канала
Расположение каналов : Front: L R
Частота : 48,0 КГц
Частота кадров : 31,250 кадров/сек (1536 SPF)
Битовая глубина : 16 бит
Метод сжатия : С потерями
Размер потока : 61,3 Мбайт (5%)
Заголовок : AC3 2.0 @ 192 kbps - MVO, Good People
Язык : Russian
ServiceKind : Complete Main
Default : Нет
Forced : Нет

Аудио #3
Идентификатор : 4
Формат : AC-3
Формат/Информация : Audio Coding 3
Идентификатор кодека : A_AC3
Продолжительность : 44 м. 40 с.
Вид битрейта : Постоянный
Битрейт : 384 Кбит/сек
Каналы : 6 каналов
Расположение каналов : Front: L C R, Side: L R, LFE
Частота : 48,0 КГц
Частота кадров : 31,250 кадров/сек (1536 SPF)
Битовая глубина : 16 бит
Метод сжатия : С потерями
Размер потока : 123 Мбайт (9%)
Заголовок : AC3 5.1 @ 384 kbps - Original
Язык : English
ServiceKind : Complete Main
Default : Нет
Forced : Нет

Текст #1
Идентификатор : 5
Формат : UTF-8
Идентификатор кодека : S_TEXT/UTF8
Идентификатор кодека/Информация : UTF-8 Plain Text
Продолжительность : 41 м. 15 с.
Битрейт : 35 бит/сек
ElementCount : 317
Размер потока : 10,8 Кбайт (0%)
Заголовок : Full
Язык : English
Default : Нет
Forced : Нет

Текст #2
Идентификатор : 6
Формат : UTF-8
Идентификатор кодека : S_TEXT/UTF8
Идентификатор кодека/Информация : UTF-8 Plain Text
Продолжительность : 42 м. 43 с.
Битрейт : 38 бит/сек
ElementCount : 389
Размер потока : 12,1 Кбайт (0%)
Заголовок : Full SDH
Язык : English
Default : Нет
Forced : Нет

Текст #3
Идентификатор : 7
Формат : UTF-8
Идентификатор кодека : S_TEXT/UTF8
Идентификатор кодека/Информация : UTF-8 Plain Text
Продолжительность : 43 м. 46 с.
Битрейт : 36 бит/сек
ElementCount : 339
Размер потока : 11,6 Кбайт (0%)
Заголовок : Full
Язык : German
Default : Нет
Forced : Нет

Текст #4
Идентификатор : 8
Формат : UTF-8
Идентификатор кодека : S_TEXT/UTF8
Идентификатор кодека/Информация : UTF-8 Plain Text
Продолжительность : 43 м. 47 с.
Битрейт : 33 бит/сек
ElementCount : 342
Размер потока : 10,8 Кбайт (0%)
Заголовок : Full European
Язык : Spanish
Default : Нет
Forced : Нет

Текст #5
Идентификатор : 9
Формат : UTF-8
Идентификатор кодека : S_TEXT/UTF8
Идентификатор кодека/Информация : UTF-8 Plain Text
Продолжительность : 43 м. 47 с.
Битрейт : 37 бит/сек
ElementCount : 341
Размер потока : 12,0 Кбайт (0%)
Заголовок : Full
Язык : French
Default : Нет
Forced : Нет

Текст #6
Идентификатор : 10
Формат : UTF-8
Идентификатор кодека : S_TEXT/UTF8
Идентификатор кодека/Информация : UTF-8 Plain Text
Продолжительность : 43 м. 47 с.
Битрейт : 34 бит/сек
ElementCount : 342
Размер потока : 11,0 Кбайт (0%)
Заголовок : Full
Язык : Dutch
Default : Нет
Forced : Нет


_________________
Проголосуй за трекер Открытый торрент трекер - RUS-MEDIA.ORG

Проголосуй Открытый торрент трекер - RUS-MEDIA.ORG


Вернуться к началу
 Профиль Отправить личное сообщение  
 
   Похожие торренты   Автор   Торрент   Размер 
В этой теме нет новых непрочитанных сообщений. Хроники Шаннары / The Shannara Chronicles [02x01 из 10] [фантастика, фэнтези, приключения, 2017] WEBRip, Mvo [Good People]

salma3

22 | 2

550.41 МБ

В этой теме нет новых непрочитанных сообщений. Хроники Шаннары / The Shannara Chronicles [02x01 из 10] [фантастика, фэнтези, приключения, 2017] WEBRip 720p, Mvo [Good People]

salma3

0 | 0

1.25 ГБ

В этой теме нет новых непрочитанных сообщений. Смертельное оружие / Lethal Weapon / 2 сезон 1-22 серии из 22 [боевик, триллер, драма, 2017] WEB-DL 1080p, Mvo [LostFilm, Good People, Profix Media, OmskBird]

salma3

0 | 0

79.59 ГБ

В этой теме нет новых непрочитанных сообщений. Хроники Шаннары / The Shannara Chronicles [2017] (Сезон 2 , Серия 1-10 из 10) (Брэд Тёрнер) [Фантастика, фэнтези, приключения , WEB-DL][1080p][ LostFilm+AlexFilm+NewStudiо+BaibaKo+Jaskier+Ukr+Eng]+[Subs Rus , ENG]

Враг Нароода

2 | 0

37.38 ГБ

В этой теме нет новых непрочитанных сообщений. Хроники Шаннары / The Shannara Chronicles [01-02х01-18 из 20] [фантастика, комедия, 2016-2017] WEB-DLRip, Mvo [LostFilm]

salma3

0 | 0

8.88 ГБ

В этой теме нет новых непрочитанных сообщений. Земляне / People of Earth [S02] [фантастика, комедия, триллер, 2017] WEBRip 720p, Mvo [Good People]

salma3

5 | 5

5.18 ГБ

В этой теме нет новых непрочитанных сообщений. Реллик / Rellik [01х01-04 из 06] [Детектив, триллер, 2017] WEBRip, Mvo [Good People]

salma3

7 | 5

2.74 ГБ


Начать новую тему Ответить на тему  [ 1 сообщение ] 




Для Мосгорсуда, Роскомнадзора и рекламодателей:: mosgorsud-torrent[собачка]yandex.ru
cron