Торрент файл
скачать торрент магнет ссылка Добавлен: 16 мар 2015, 10:34
Размер: 2.74 ГБ
Сидеров: 281
Личеров: 87
Автор

СообщениеДобавлено: 16 мар 2015, 10:34 

Не в сети
Зам. Админа
Аватара пользователя
Дата регистрации:
02 дек 2010, 12:39
Спасибо: 12665 / 214
Сообщения: 27980
Чемпионы / Champs



Год выпуска: 2015
Вид спорта: Бокс | Документальный | Биографический
Язык комментариев: Английский
Субтитры: Английские
Продолжительность: 1:30:40
Автор сценария и режиссёр: Берт Маркус
В ролях: 50cent, Мэри Джей Блайдж, Эвандер Холлифилд, Бернард Хопкинс, Рон Ховард, Спайк Ли, Майк Тайсон, Марк Уолберг, Дензел Вашингтон

Описание: Документальный фильм от канала "Starz" о великих боксёрах Майке Тайсоне, Эвандере Холифилде и Бернарде Хопкинсе показывет их жизнь внутри и вне ринга.


Автор рипа/записи: ETRG

Качество: WEB-DL 720p
Формат: MKV
Видео: 1280x720 (1.85:1), 23,976 fps, H264, ~3850 kbps avg, ~0.181 bit/pixel
Аудио: 48 kHz, AC3 Dolby Digital, 3/2 (L,C,R,l,r) + LFE ch, ~384.00 kbps avg

General
Unique ID : 199991208323687916196761063331356290119 (0x9674E7DA26C85669B7909EA3D1212C47)
Complete name : E:uTorrent.TempTempChamps.2015.720p.WEB-DL.x264-ETRG.mkv
Format : Matroska
Format version : Version 4 / Version 2
File size : 2.74 GiB
Duration : 1h 30mn
Overall bit rate : 4 319 Kbps
Encoded date : UTC 2015-03-14 20:44:35
Writing application : mkvmerge v6.7.0 ('Back to the Ground') 64bit built on Jan 8 2014 15:10:52
Writing library : libebml v1.3.0 + libmatroska v1.4.1

Video
ID : 1
Format : AVC
Format/Info : Advanced Video Codec
Format profile : High@L3.1
Format settings, CABAC : No
Format settings, ReFrames : 2 frames
Codec ID : V_MPEG4/ISO/AVC
Duration : 1h 30mn
Bit rate : 3 850 Kbps
Width : 1 280 pixels
Height : 692 pixels
Display aspect ratio : 1.85:1
Frame rate mode : Constant
Frame rate : 23.976 fps
Color space : YUV
Chroma subsampling : 4:2:0
Bit depth : 8 bits
Scan type : Progressive
Bits/(Pixel*Frame) : 0.181
Stream size : 2.44 GiB (89%)
Language : English
Default : Yes
Forced : No
Color primaries : BT.709
Transfer characteristics : BT.709
Matrix coefficients : BT.709
Color range : Limited

Audio
ID : 2
Format : AC-3
Format/Info : Audio Coding 3
Mode extension : CM (complete main)
Format settings, Endianness : Big
Codec ID : A_AC3
Duration : 1h 30mn
Bit rate mode : Constant
Bit rate : 384 Kbps
Channel(s) : 6 channels
Channel positions : Front: L C R, Side: L R, LFE
Sampling rate : 48.0 KHz
Bit depth : 16 bits
Compression mode : Lossy
Stream size : 249 MiB (9%)
Language : English
Default : Yes
Forced : No

Text
ID : 3
Format : UTF-8
Codec ID : S_TEXT/UTF8
Codec ID/Info : UTF-8 Plain Text
Default : Yes
Forced : No

Menu
00:00:00.000 : en:Chapter 1
00:07:04.000 : en:Chapter 2
00:16:54.000 : en:Chapter 3
00:22:16.000 : en:Chapter 4
00:32:02.000 : en:Chapter 5
00:38:37.000 : en:Chapter 6
00:44:20.000 : en:Chapter 7
00:53:06.000 : en:Chapter 8
01:01:05.000 : en:Chapter 9
01:09:15.000 : en:Chapter 10
01:15:02.000 : en:Chapter 11
01:22:27.000 : en:Chapter 12
01:26:43.000 : en:Chapter 13



Вернуться к началу
 Профиль  
 
   Похожие торренты   Автор   Торрент   Размер 
В этой теме нет новых непрочитанных сообщений. Точность и погрешность измерений [01-03] (Маркус дю Сутуа) [2013, документальный, IPTVRip] DUB

salma3

0 | 0

1.88 ГБ

В этой теме нет новых непрочитанных сообщений. Бокс / Дэниел Джейкобс (США) vs. Луис Ариас (США) / Daniel Jacobs vs. Luis Arias[Бокс, 11.11.2017, Stream MKV/1680х964, GER] / Бокс

salma3

13 | 13

11.5 ГБ

В этой теме нет новых непрочитанных сообщений. Загадки планеты Земля / Discovery: What on Earth? [01-02] [2015, Документальный, наука, космос, история, HDTVRip 720p]

salma3

0 | 0

2.56 ГБ

В этой теме нет новых непрочитанных сообщений. Бокс. Александр Усик - Марко Хук [09.09] (2017) HDTVRip 720p | 50 fps

salma3

205 | 9

1.61 ГБ

В этой теме нет новых непрочитанных сообщений. Бокс. Дмитрий Бивол - Сэмюэл Кларксон [14.04] (2017) HDTVRip 720p | 50 fps

salma3

94 | 13

776.1 МБ

В этой теме нет новых непрочитанных сообщений. Бокс. Каллум Смит - Эрик Скоглунд [16.09] (2017) HDTVRip 720p | 50 fps

salma3

23 | 3

1.92 ГБ


Начать новую тему Ответить на тему  [ 1 сообщение ] 




Для Мосгорсуда, Роскомнадзора и рекламодателей:: mosgorsud-torrent[собачка]yandex.ru