Торрент файл
скачать торрент магнет ссылка Добавлен: 29 июл 2012, 22:35
Размер: 5.55 ГБ
Сидеров: 2
Личеров: 4
Автор

СообщениеДобавлено: 29 июл 2012, 22:35 

Не в сети
Аватара пользователя
Дата регистрации:
28 ноя 2010, 22:22
Спасибо: 722 / 5
Сообщения: 2030
Бугай 3Д / Boogie, el aceitoso 3D
Год выпуска: 2009
Страна: Аргентина, Мексика
Студия: Illusion Studios, Proceso
Жанр: мультфильм, боевик, криминал
Продолжительность: 01:25:38
Перевод: Профессиональный (дублированный)
Русские субтитры: нет
Режиссер на русском: Густаво Кова
Режиссер на английском: Gustavo Cova
В ролях: Пабло Эчарри, Нэнси Дуплаа, Николас Фриас, Марсело Арман, Руфино Галло, Диего Брицци, Рикардо Эланис, Лучана Фалькон, Карин Сабала, Эрнан Чьёзза
Роли озвучивали: Гоша Куценко, Елена Дробышева, Михаил Горевой, Павел Кипнис, Алексей Шатхи...
Описание: Киллер по прозвищу Бугай начал свою карьеру во Вьетнаме, убивал черных повстанцев в Южной Африке, мочил красных в Никаргуа, глотал песок в Афганистане и Ираке. Он был на всех гребаных войнах за последние 30 лет! Раньше он убивал во имя демократии, теперь убивает за бабос. Этот заказ должен был стать последним — убрать бывшую телку Сонни Калабриа, дона всех донов, главы мафии в Америке, которую ФБР развело дать показания против него. Дело трудное и он попросил много — 500 кусков. Чтобы хватило надолго. Но Сонни зажал бабки и нанял молодого киллера Блэкберна по кличке Человек-Каблук, который обещал отработать за половину и убрать Бугая до кучи, чтобы не возникло конфликта интересов. И тут Бугай конкретно напрягся! Теперь его цель — выкрасть свидетельницу, любой ценой привезти ее на суд и убить всех вокруг! На его пути вырастают горы трупов, кровь льется рекой и выбитые зубы свистят над головой.
Исходник : http://rutracker.org/forum/viewtopic.php?t=3603595
ВНИМАНИЕ!:Для просмотра 3D требуются анаглифные очки (красно-голубые)

Мультфильм для взрослых
Качество: BDrip
Контейнер: MKV
Формат 3D: Анаглиф red-cyan
Видео кодек: x264
Аудио кодек: AC3
Видео: AVC / 1920х1080p / 23,976 fps /8011 Kbps
Аудио: Русский / AC3 / 48 KHz / 5.1 ch / 448 Kbps
Аудио 2: Испанский / AC3 / 48 KHz / 5.1 ch / 640 Kbps
Субтитры: отсутствуют
MediaInfo
General
Unique ID : 203484513670858059499129185337820116970 (0x9915B11A72134DBE95EC9901FBC0F7EA)
Complete name : G:\фильмы\Бугай 3Д.mkv
Format : Matroska
Format version : Version 2
File size : 5.55 GiB
Duration : 1h 25mn
Overall bit rate : 9 283 Kbps
Encoded date : UTC 2012-07-23 16:18:48
Writing application : mkvmerge v3.4.0 ('Rapunzel') сборка от May 15 2010 09:38:20
Writing library : libebml v0.8.0 + libmatroska v0.9.0
Video
ID : 1
Format : AVC
Format/Info : Advanced Video Codec
Format profile : High@L4.1
Format settings, CABAC : Yes
Format settings, ReFrames : 4 frames
Codec ID : V_MPEG4/ISO/AVC
Duration : 1h 25mn
Bit rate : 8 011 Kbps
Width : 1 920 pixels
Height : 1 080 pixels
Display aspect ratio : 16:9
Frame rate : 23.976 fps
Color space : YUV
Chroma subsampling : 4:2:0
Bit depth : 8 bits
Scan type : Progressive
Bits/(Pixel*Frame) : 0.161
Stream size : 4.79 GiB (86%)
Title : Rip by SeRoGa00
Writing library : x264 core 125 r2200 999b753
Encoding settings : cabac=1 / ref=4 / deblock=1:-1:-1 / analyse=0x3:0x133 / me=umh / subme=9 / psy=1 / psy_rd=1.00:0.15 / mixed_ref=1 / me_range=16 / chroma_me=1 / trellis=2 / 8x8dct=1 / cqm=0 / deadzone=21,11 / fast_pskip=1 / chroma_qp_offset=-3 / threads=14 / lookahead_threads=2 / sliced_threads=0 / nr=0 / decimate=1 / interlaced=0 / bluray_compat=0 / constrained_intra=0 / bframes=6 / b_pyramid=2 / b_adapt=2 / b_bias=0 / direct=3 / weightb=1 / open_gop=0 / weightp=2 / keyint=250 / keyint_min=23 / scenecut=40 / intra_refresh=0 / rc_lookahead=60 / rc=crf / mbtree=1 / crf=18.0 / qcomp=0.60 / qpmin=10 / qpmax=69 / qpstep=4 / vbv_maxrate=40000 / vbv_bufsize=40000 / crf_max=0.0 / nal_hrd=none / ip_ratio=1.40 / aq=1:1.00
Language : English
Default : Yes
Forced : No
Audio #1
ID : 2
Format : AC-3
Format/Info : Audio Coding 3
Mode extension : CM (complete main)
Format settings, Endianness : Big
Codec ID : A_AC3
Duration : 1h 25mn
Bit rate mode : Constant
Bit rate : 448 Kbps
Channel(s) : 6 channels
Channel positions : Front: L C R, Side: L R, LFE
Sampling rate : 48.0 KHz
Bit depth : 16 bits
Compression mode : Lossy
Stream size : 274 MiB (5%)
Language : Russian
Default : Yes
Forced : No
Audio #2
ID : 3
Format : AC-3
Format/Info : Audio Coding 3
Mode extension : CM (complete main)
Format settings, Endianness : Big
Codec ID : A_AC3
Duration : 1h 25mn
Bit rate mode : Constant
Bit rate : 640 Kbps
Channel(s) : 6 channels
Channel positions : Front: L C R, Side: L R, LFE
Sampling rate : 48.0 KHz
Bit depth : 16 bits
Compression mode : Lossy
Stream size : 392 MiB (7%)
Language : Spanish
Default : No
Forced : No
Скриншоты




Вернуться к началу
 Профиль Отправить личное сообщение  
 
   Похожие торренты   Автор   Торрент   Размер 
В этой теме нет новых непрочитанных сообщений. Зверополис / Zootopia (мультфильм, боевик, комедия, криминал, приключения, семейный, 2016) BDRip 1080p от New-Team & qqss44 | Локализованная версия | Лицензия

marya111

310 | 87

7.75 ГБ

В этой теме нет новых непрочитанных сообщений. Хранитель / The Keeper [боевик, триллер, криминал, 2009] BDRip 1080p, Mvo

salma3

76 | 32

8.29 ГБ

В этой теме нет новых непрочитанных сообщений. Наперегонки со смертью / Dead Man Running [боевик, триллер, драма, криминал, 2009] BDRip 1080p, Mvo

salma3

17 | 3

7.26 ГБ

В этой теме нет новых непрочитанных сообщений. Адреналин: Высокое напряжение / Crank: High Voltage [криминал, боевик, комедия, 2009] BDRip 1080p, Dub

salma3

19 | 15

7.96 ГБ

В этой теме нет новых непрочитанных сообщений. Зверополис 3Д / Zootopia 3D [мультфильм, боевик, комедия, криминал, 2016] Blu-Ray CEE 1080p, Dub [3D-Video] [Лицензия]

salma3

20 | 15

45.8 ГБ

В этой теме нет новых непрочитанных сообщений. Монстры против пришельцев / Monsters vs Aliens [мультфильм, фантастика, боевик, 2009] BDRip-AVC, Dub

salma3

52 | 20

1.74 ГБ

В этой теме нет новых непрочитанных сообщений. Зверополис / Zootopia [мультфильм, боевик, комедия, 2016] BDRip 1080p, Dub

salma3

455 | 29

5.75 ГБ


Начать новую тему Ответить на тему  [ 1 сообщение ] 




Для Мосгорсуда, Роскомнадзора и рекламодателей:: mosgorsud-torrent[собачка]yandex.ru
cron
cron