Торрент файл
скачать торрент магнет ссылка Добавлен: 29 июл 2012, 22:36
Размер: 6.98 ГБ
Сидеров: 5
Личеров: 5
Автор

СообщениеДобавлено: 29 июл 2012, 22:36 

Не в сети
Аватара пользователя
Дата регистрации:
28 ноя 2010, 22:22
Спасибо: 722 / 5
Сообщения: 2030
Рождественская история 3Д / A Christmas Carol 3DСтрана: США
Жанр: фэнтези, драма, семейный, мультфильм
Продолжительность: 01:35:48
Год выпуска: 2009
Перевод: Профессиональный (дублированный)
Русские субтитры: есть
Режиссёр: Роберт Земекис / Robert Zemeckis
Роли озвучивали: Джим Керри, Стив Валентайн, Дэрил Сабара, Сэйдж Райан, Эмбер Гейни Миде, Райан Очоа, Бобби Пейдж, Рон Боттитта, Сэмми Ханратти, Джулиан Холлоуэй
Описание: Это викторианская поучительная история о старом и ожесточившемся скупердяе Эбенезере Скрудже, который в течение одной ночи переживает испытание глубокого очищения. Мистер Скрудж - финансист/денежный меняла, который посвятил всю свою жизнь накоплению богатства. Он презирает всё, кроме денег, включая дружбу, любовь и рождественские праздники.

Качество: BDrip
Формат: MKV
Формат 3D: OverUnder / Вертикальная стереопара
Видео кодек: x264
Аудио кодек: AC3
Видео: MPEG4 Video (H264) 1920x1604 23.98fps 8949 Kbps
Аудио: Russian AC3 48000Hz 6ch 640 Kbps
Аудио: English AC3 48000Hz 6ch 640 Kbps
mi
Format : Matroska
File size : 6.98 GiB
Duration : 1h 35mn
Overall bit rate : 10.4 Mbps
Encoded date : UTC 2010-11-17 17:12:46
Writing application : mkvmerge v2.9.7 ('Tenderness') built on Jul 1 2009 18:43:35
Writing library : libebml v0.7.7 + libmatroska v0.8.1
Video
ID : 1
Format : AVC
Format/Info : Advanced Video Codec
Format profile : High@L5.0
Format settings, CABAC : Yes
Format settings, ReFrames : 4 frames
Muxing mode : Container profile=Unknown@5.0
Codec ID : V_MPEG4/ISO/AVC
Duration : 1h 35mn
Bit rate : 8 949 Kbps
Width : 1 920 pixels
Height : 1 604 pixels
Display aspect ratio : 1.197
Frame rate : 23.976 fps
Color space : YUV
Chroma subsampling : 4:2:0
Bit depth : 8 bits
Scan type : Progressive
Bits/(Pixel*Frame) : 0.121
Stream size : 5.99 GiB (86%)
Writing library : x264 core 107 r1766 f9f0035
Encoding settings : cabac=1 / ref=4 / deblock=1:-2:-2 / analyse=0x3:0x113 / me=umh / subme=7 / psy=1 / psy_rd=1.00:0.15 / mixed_ref=1 / me_range=16 / chroma_me=1 / trellis=2 / 8x8dct=1 / cqm=0 / deadzone=21,11 / fast_pskip=1 / chroma_qp_offset=-3 / threads=6 / sliced_threads=0 / nr=0 / decimate=1 / interlaced=0 / constrained_intra=0 / bframes=6 / b_pyramid=0 / b_adapt=2 / b_bias=0 / direct=3 / weightb=1 / open_gop=0 / weightp=2 / keyint=250 / keyint_min=23 / scenecut=40 / intra_refresh=0 / rc_lookahead=40 / rc=crf / mbtree=1 / crf=18.0 / qcomp=0.60 / qpmin=10 / qpmax=51 / qpstep=4 / ip_ratio=1.40 / aq=1:1.00
Language : English
Audio #1
ID : 2
Format : AC-3
Format/Info : Audio Coding 3
Mode extension : CM (complete main)
Codec ID : A_AC3
Duration : 1h 35mn
Bit rate mode : Constant
Bit rate : 640 Kbps
Channel(s) : 6 channels
Channel positions : Front: L C R, Side: L R, LFE
Sampling rate : 48.0 KHz
Bit depth : 16 bits
Stream size : 439 MiB (6%)
Language : Russian
Audio #2
ID : 3
Format : AC-3
Format/Info : Audio Coding 3
Mode extension : CM (complete main)
Codec ID : A_AC3
Duration : 1h 35mn
Bit rate mode : Constant
Bit rate : 640 Kbps
Channel(s) : 6 channels
Channel positions : Front: L C R, Side: L R, LFE
Sampling rate : 48.0 KHz
Bit depth : 16 bits
Stream size : 439 MiB (6%)
Language : English
Скриншоты



Вернуться к началу
 Профиль Отправить личное сообщение  
 
   Похожие торренты   Автор   Торрент   Размер 
В этой теме нет новых непрочитанных сообщений. Рождественская история / A Christmas Carol [Мультфильм, фэнтези, драма, 2009] BDRemux 1080p, Dub

salma3

0 | 0

19.6 ГБ

В этой теме нет новых непрочитанных сообщений. Союзники / Allied (Роберт Земекис / Robert Zemeckis) [2016г., боевик, триллер, драма, мелодрама, военный, WEB-DLRip] MVO

Alfredovich

0 | 0

1.46 ГБ

В этой теме нет новых непрочитанных сообщений. Рождественская история / A Christmas Story [драма, комедия, семейный, 1983] BDRip-HEVC 1080p, Mvo

salma3

0 | 0

7.82 ГБ

В этой теме нет новых непрочитанных сообщений. Рождественская сказка Маппетов / The Muppet Christmas Carol [мюзикл, фэнтези, драма, 1992] HDRip, Mvo

salma3

0 | 0

744.55 МБ

В этой теме нет новых непрочитанных сообщений. Рождественская звезда / The Christmas Star [Драма, семейный, 1986] WEB-DL 1080p, Avo

salma3

0 | 0

7.58 ГБ

В этой теме нет новых непрочитанных сообщений. Все собаки празднуют Рождество / An All Dogs Christmas Carol [мультфильм, 1998] WEB-DL 1080p, Dub

salma3

64 | 18

3.5 ГБ

В этой теме нет новых непрочитанных сообщений. Рождественская звезда / The Christmas Star [драма, семейный, 1986] DVDRip, Avo

salma3

4 | 4

1.47 ГБ


Начать новую тему Ответить на тему  [ 1 сообщение ] 




Для Мосгорсуда, Роскомнадзора и рекламодателей:: mosgorsud-torrent[собачка]yandex.ru
cron