Торрент файл
скачать торрент магнет ссылка Добавлен: 03 ноя 2018, 21:22
Размер: 7.59 ГБ
Сидеров: 0
Личеров: 0
Автор

СообщениеДобавлено: 03 ноя 2018, 21:22 

Не в сети
Супермодератор
Аватара пользователя
Дата регистрации:
15 фев 2012, 16:44
Возраст: 29
Спасибо: 7978 / 2147
Сообщения: 88037
Год выпуска: 2018
Жанр: Мультфильм, фантастика, боевик
Режиссер: Брэд Берд

В ролях: Крэйг Т. Нельсон, Холли Хантер, Сара Вауэлл, Хак Милнер, Кэтрин Кинер, Илай Фучиле, Боб Оденкёрк, Сэмюэл Л. Джексон, Майкл Бёрд, София Буш

О фильме: После событий первой части суперсемейка пользуется повышенным вниманием со стороны журналистов. Неожиданно оказалось, что обаятельная Миссис Исключительная гораздо лучше смотрится на экране телевизора, чем её муж. Мистеру Исключительному все чаще приходится сидеть дома и приглядывать за детьми, у каждого из которых есть свои причины быть недовольным собственными суперспособностями. Однако семейным проблемам предстоит отступить на второй план, когда окажется, что спокойствию Суперсемейки угрожает новый могущественный враг.



Страна: США
Продолжительность: 01:57:49
Перевод: Дублированный | iTunes

Файл
Качество: BDRip (by Ash61)
Контейнер: MKV
Формат 3D: Half OverUnder / Вертикальная анаморфная стереопара
Порядок ракурсов: левый ракурс первый



Видео: AVC / 1920х1080p / 23,976 fps / 8000 Kbps

Аудио:
#1 - Русский / AC3 / 48 KHz / 5.1 ch / 384 Kbps (Дубляж - iTunes)
#2 - Украинский / AC3 / 48 KHz / 2 ch / 192 Kbps (Дубляж - iTunes)
#3 - Английский / AC3 / 48 KHz / 5.1 ch / 640 Kbps (Original - BD 3D)

Субтитры (SRT):
Вшитые (softsub):
#1 - Русские Форсированные [Ash61 v1] (включены по умолчанию)
#2 - Русские Полные
#2 - Русские SDH
#2 - Украинские Форсированные [Ash61 v1]
#4 - English Full
#5 - English SDH

Внешние (UTF-8):
#1 - Русские Форсированные [Ash61 v1] (включены по умолчанию)
#2 - Русские SDH
#3 - Украинские Форсированные [Ash61 v1]

General
Unique ID : 175839819228358171636325328325157139472 (0x8449846F86AEF76F9FDDCE916FAD3410)
Complete name : D:Incredibles2(2018)3D-halfOU(Ash61)iTunesIncredibles2(2018)3D-halfOU(Ash61)[Video.Eng]iTunes.mkv
Format : Matroska
Format version : Version 2
File size : 7.59 GiB
Duration : 1h 57mn
Overall bit rate : 9 219 Kbps
Movie name : Суперсемейка 2 / Incredibles 2 (2018) in 3D
Encoded date : UTC 2018-11-03 12:05:14
Writing application : mkvmerge v5.8.0 ('No Sleep / Pillow') built on Sep 2 2012 15:37:04
Writing library : libebml v1.2.3 + libmatroska v1.3.0

Video
ID : 1
Format : AVC
Format/Info : Advanced Video Codec
Format profile : High@L4.1
Format settings, CABAC : Yes
Format settings, ReFrames : 4 frames
Codec ID : V_MPEG4/ISO/AVC
Duration : 1h 57mn
Bit rate : 8 000 Kbps
Width : 1 920 pixels
Height : 1 080 pixels
Display aspect ratio : 16:9
Frame rate mode : Constant
Frame rate : 23.976 (24000/1001) fps
Color space : YUV
Chroma subsampling : 4:2:0
Bit depth : 8 bits
Scan type : Progressive
Bits/(Pixel*Frame) : 0.161
Stream size : 6.44 GiB (85%)
Title : BDRip by Ash61 (video eng)
Writing library : x264 core 146 r2538 121396c
Encoding settings : cabac=1 / ref=4 / deblock=1:-3:-3 / analyse=0x3:0x113 / me=umh / subme=10 / psy=1 / psy_rd=1.00:0.00 / mixed_ref=1 / me_range=32 / chroma_me=1 / trellis=2 / 8x8dct=1 / cqm=0 / deadzone=21,11 / fast_pskip=0 / chroma_qp_offset=-2 / threads=12 / lookahead_threads=2 / sliced_threads=0 / nr=0 / decimate=0 / interlaced=0 / bluray_compat=0 / constrained_intra=0 / bframes=9 / b_pyramid=2 / b_adapt=2 / b_bias=0 / direct=3 / weightb=1 / open_gop=0 / weightp=2 / keyint=250 / keyint_min=23 / scenecut=40 / intra_refresh=0 / rc_lookahead=60 / rc=2pass / mbtree=0 / bitrate=8000 / ratetol=1.0 / qcomp=0.70 / qpmin=0 / qpmax=69 / qpstep=4 / cplxblur=20.0 / qblur=0.5 / vbv_maxrate=40000 / vbv_bufsize=30000 / nal_hrd=none / filler=0 / frame-packing=4 / ip_ratio=1.40 / pb_ratio=1.30 / aq=1:0.70
Language : English
Default : Yes
Forced : No

Audio #1
ID : 2
Format : AC-3
Format/Info : Audio Coding 3
Mode extension : CM (complete main)
Format settings, Endianness : Big
Codec ID : A_AC3
Duration : 1h 57mn
Bit rate mode : Constant
Bit rate : 384 Kbps
Channel(s) : 6 channels
Channel positions : Front: L C R, Side: L R, LFE
Sampling rate : 48.0 KHz
Frame rate : 31.250 fps (1536 spf)
Compression mode : Lossy
Stream size : 324 MiB (4%)
Title : Дубляж (iTunes)
Language : Russian
Default : Yes
Forced : No

Audio #2
ID : 3
Format : AC-3
Format/Info : Audio Coding 3
Mode extension : CM (complete main)
Format settings, Endianness : Big
Codec ID : A_AC3
Duration : 1h 57mn
Bit rate mode : Constant
Bit rate : 192 Kbps
Channel(s) : 2 channels
Channel positions : Front: L R
Sampling rate : 48.0 KHz
Frame rate : 31.250 fps (1536 spf)
Compression mode : Lossy
Stream size : 162 MiB (2%)
Title : Дубляж (iTunes)
Language : Ukrainian
Default : No
Forced : No

Audio #3
ID : 4
Format : AC-3
Format/Info : Audio Coding 3
Mode extension : CM (complete main)
Format settings, Endianness : Big
Codec ID : A_AC3
Duration : 1h 57mn
Bit rate mode : Constant
Bit rate : 640 Kbps
Channel(s) : 6 channels
Channel positions : Front: L C R, Side: L R, LFE
Sampling rate : 48.0 KHz
Frame rate : 31.250 fps (1536 spf)
Compression mode : Lossy
Stream size : 539 MiB (7%)
Title : Original (BD 3D Eur)
Language : English
Default : No
Forced : No

Text #1
ID : 5
Format : UTF-8
Codec ID : S_TEXT/UTF8
Codec ID/Info : UTF-8 Plain Text
Title : Форсированные [Ash61 (v1)]
Language : Russian
Default : Yes
Forced : No

Text #2
ID : 6
Format : UTF-8
Codec ID : S_TEXT/UTF8
Codec ID/Info : UTF-8 Plain Text
Title : Полные
Language : Russian
Default : No
Forced : No

Text #3
ID : 7
Format : UTF-8
Codec ID : S_TEXT/UTF8
Codec ID/Info : UTF-8 Plain Text
Title : SDH
Language : Russian
Default : No
Forced : No

Text #4
ID : 8
Format : UTF-8
Codec ID : S_TEXT/UTF8
Codec ID/Info : UTF-8 Plain Text
Title : Форсированные [Ash61 (v1)]
Language : Ukrainian
Default : No
Forced : No

Text #5
ID : 9
Format : UTF-8
Codec ID : S_TEXT/UTF8
Codec ID/Info : UTF-8 Plain Text
Title : Full (BD 3D Eur, from SDH)
Language : English
Default : No
Forced : No

Text #6
ID : 10
Format : UTF-8
Codec ID : S_TEXT/UTF8
Codec ID/Info : UTF-8 Plain Text
Title : SDH (BD 3D Eur)
Language : English
Default : No
Forced : No

Menu
00:00:00.000 : : 1. Tony Interrogation
00:03:22.326 : : 2. Incredibles vs Underminer
00:08:53.615 : : 3. Chewed Out
00:09:36.783 : : 4. Family Dinner
00:13:38.274 : : 5. Poolside
00:15:44.735 : : 6. Deavor Meets Supers
00:21:19.736 : : 7. Pillow Talk
00:23:28.280 : : 8. New House
00:27:08.792 : : 9. Where's Mom?
00:28:59.569 : : 10. Runaway Train
00:35:10.900 : : 11. Raccoon Fight
00:39:07.844 : : 12. Helen Checks in
00:42:43.893 : : 13. Tony Forgets
00:43:42.411 : : 14. Air Rescue
00:47:35.351 : : 15. Breakfast Blowup
00:48:53.887 : : 16. Triumph Return
00:54:15.585 : : 17. Vi Embarrassed
00:56:16.038 : : 18. Tracking Screenslaver
01:00:58.695 : : 19. Screenslaver Caught
01:02:01.884 : : 20. Breaking Point
01:06:55.510 : : 21. E the Babysitter
01:09:18.235 : : 22. Helen Reviews Footage
01:11:28.199 : : 23. Bob's Apology
01:12:37.685 : : 24. Helen Slips Away
01:14:39.265 : : 25. Auntie E
01:18:00.966 : : 26. Cold Room
01:20:32.534 : : 27. House Attack
01:25:01.929 : : 28. Kids Alone
01:27:59.439 : : 29. Super Signing
01:31:53.923 : : 30. Kids to the Rescue
01:33:26.432 : : 31. Trap is Sprung
01:36:25.237 : : 32. Battle Royale
01:37:45.192 : : 33. Save the Day
01:43:56.895 : : 34. Resolution
01:45:35.912 : : 35. Epilogue
01:47:30.902 : : 36. End Credits





















_________________
Проголосуй за трекер Открытый торрент трекер - RUS-MEDIA.ORG

Проголосуй Открытый торрент трекер - RUS-MEDIA.ORG


Вернуться к началу
 Профиль  
 
   Похожие торренты   Автор   Торрент   Размер 
В этой теме нет новых непрочитанных сообщений. Суперсемейка 2 / Incredibles 2 [Мультфильм, фантастика, боевик, 2018] WEB-DL 1080p, Dub [iTunes]

salma3

0 | 0

4.34 ГБ

В этой теме нет новых непрочитанных сообщений. Суперсемейка 2 / Incredibles 2 [Мультфильм, фантастика, боевик, 2018] BDRip 1080p, Dub [Лицензия]

salma3

54 | 2

8.6 ГБ

В этой теме нет новых непрочитанных сообщений. Суперсемейка 2 / Incredibles 2 [Мультфильм, фантастика, боевик, 2018] WEB-DLRip, Dub [iTunes]

salma3

338 | 37

748.25 МБ

В этой теме нет новых непрочитанных сообщений. Суперсемейка 2 / Incredibles 2 [Мультфильм, фантастика, боевик, 2018] WEB-DL 720p, Dub [iTunes]

salma3

0 | 0

3.92 ГБ

В этой теме нет новых непрочитанных сообщений. Суперсемейка 2 / Incredibles 2 [Мультфильм, фантастика, боевик, 2018] WEB-DLRip, Dub [iTunes]

salma3

0 | 0

1.46 ГБ

В этой теме нет новых непрочитанных сообщений. Суперсемейка 2 / Incredibles 2 [Мультфильм, фантастика, боевик, 2018] WEB-DLRip-AVC, Dub [iTunes]

salma3

0 | 0

2.16 ГБ

В этой теме нет новых непрочитанных сообщений. Суперсемейка 2 / Incredibles 2 [Мультфильм, фантастика, боевик, 2018] BDRip, Dub [Лицензия]

salma3

59 | 1

2.18 ГБ


Начать новую тему Ответить на тему  [ 1 сообщение ] 




Для Мосгорсуда, Роскомнадзора и рекламодателей:: mosgorsud-torrent[собачка]yandex.ru
cron