Торрент файл
скачать торрент магнет ссылка Добавлен: 27 дек 2018, 12:30
Размер: 8.9 ГБ
Сидеров: 0
Личеров: 0
Статус: (salma3)
Автор

СообщениеДобавлено: 27 дек 2018, 12:30 

Не в сети
Супермодератор
Аватара пользователя
Дата регистрации:
15 фев 2012, 16:44
Возраст: 29
Спасибо: 7984 / 2147
Сообщения: 88100
Год выпуска: 2018
Жанр: Мультфильм, мюзикл, фэнтези
Режиссер: Кэри Киркпатрик, Джейсон Рейсиг

В ролях: Ченнинг Татум, Джеймс Корден, Зендая Колеман, Коммон, Леброн Джеймс, Дэнни ДеВито, Джина Родригез, Яра Шахиди, Эли Генри, Джимми Татро

О фильме:
«Смолфут» переворачивает миф о бигфутах с ног на голову. В нем молодой находчивый йети сталкивается с тем, что по его глубокому убеждению, не существует — человека. Новости о «смолфуте» приносят ему славу и шанс завоевать девушку его мечты. А еще — вызывают переполох среди простых йети, которые теперь гадают, что же еще обитает в большом мире за пределами их маленькой заснеженной деревушки.



Страна: США
Продолжительность: 01:36:17
Перевод: Дублированный | iTunes

Файл
Качество: BDRip 1080p
Видео: MPEG-4 AVC, 1920x1080, 11.2 Мbit/s, 23.976 fps
Аудио #01: 48 kHz, AC3, 5.1, 384 Kbps | iTunes | RUS
Аудио #02: 48 kHz, AC3, 2.0, 160 Kbps | iTunes | UKR
Аудио #03: 48 kHz, DTS, 5.1, 1510 Kbps | Оригинал | ENG
Субтитры: Русские (Forced, full), украинские (Forced), английские

Формат 3D: Half OverUnder - Вертикальная анаморфная стереопара.
Порядок ракурсов: левый ракурс первый

General
Unique ID : 153494952475268891601672156732791452222 (0x737A0D728102CB152751AD2F900FF23E)
Complete name : D:Video111Smallfoot.2018.3D.HOU.BDRip.1080p.seleZen.mkv
Format : Matroska
Format version : Version 4
File size : 8.90 GiB
Duration : 1 h 36 min
Overall bit rate : 13.2 Mb/s
Movie name : Smallfoot 2018 HOU 3D from селезень
Encoded date : UTC 2018-12-26 22:07:37
Writing application : mkvmerge v29.0.0 ('Like It Or Not') 64-bit
Writing library : libebml v1.3.6 + libmatroska v1.4.9

Video
ID : 1
Format : AVC
Format/Info : Advanced Video Codec
Format profile : High@L4.1
Format settings : CABAC / 4 Ref Frames
Format settings, CABAC : Yes
Format settings, ReFrames : 4 frames
Codec ID : V_MPEG4/ISO/AVC
Duration : 1 h 36 min
Bit rate : 11.2 Mb/s
Width : 1 920 pixels
Height : 1 080 pixels
Display aspect ratio : 16:9
Frame rate mode : Constant
Frame rate : 23.976 (24000/1001) FPS
Color space : YUV
Chroma subsampling : 4:2:0
Bit depth : 8 bits
Scan type : Progressive
Bits/(Pixel*Frame) : 0.225
Stream size : 7.52 GiB (84%)
Title : 剑心@HDSky
Writing library : x264 core 148 r2699+6+41 29a38aa Yuuki [8-bit@4:2:0 X86_64][GCC 5.3.0]
Encoding settings : cabac=1 / ref=3 / deblock=1:-3:-3 / analyse=0x3:0x113 / me=umh / subme=11 / psy=1 / fade_compensate=0.00 / psy_rd=1.00:0.05 / mixed_ref=1 / me_range=48 / chroma_me=1 / trellis=2 / 8x8dct=1 / cqm=0 / deadzone=21,11 / fast_pskip=0 / chroma_qp_offset=-2 / threads=24 / lookahead_threads=4 / sliced_threads=0 / nr=0 / decimate=1 / interlaced=0 / bluray_compat=0 / constrained_intra=0 / fgo=0 / bframes=8 / b_pyramid=2 / b_adapt=2 / b_bias=0 / direct=3 / weightb=1 / open_gop=0 / weightp=2 / keyint=250 / keyint_min=23 / scenecut=40 / intra_refresh=0 / rc_lookahead=40 / rc=crf / mbtree=0 / crf=17.6000 / qcomp=0.60 / qpmin=0:0:0 / qpmax=69:69:69 / qpstep=4 / vbv_maxrate=50000 / vbv_bufsize=40000 / crf_max=0.0 / nal_hrd=none / filler=0 / ip_ratio=1.40 / pb_ratio=1.30 / aq=3:0.90
Language : English
Default : Yes
Forced : No

Audio #1
ID : 2
Format : AC-3
Format/Info : Audio Coding 3
Commercial name : Dolby Digital
Codec ID : A_AC3
Duration : 1 h 36 min
Bit rate mode : Constant
Bit rate : 384 kb/s
Channel(s) : 6 channels
Channel layout : L R C LFE Ls Rs
Sampling rate : 48.0 kHz
Frame rate : 31.250 FPS (1536 SPF)
Bit depth : 16 bits
Compression mode : Lossy
Stream size : 264 MiB (3%)
Title : iTunes
Language : Russian
Service kind : Complete Main
Default : Yes
Forced : Yes

Audio #2
ID : 3
Format : AC-3
Format/Info : Audio Coding 3
Commercial name : Dolby Digital
Codec ID : A_AC3
Duration : 1 h 36 min
Bit rate mode : Constant
Bit rate : 160 kb/s
Channel(s) : 2 channels
Channel layout : L R
Sampling rate : 48.0 kHz
Frame rate : 31.250 FPS (1536 SPF)
Bit depth : 16 bits
Compression mode : Lossy
Stream size : 110 MiB (1%)
Title : iTunes
Language : Ukrainian
Service kind : Complete Main
Default : No
Forced : No

Audio #3
ID : 4
Format : DTS
Format/Info : Digital Theater Systems
Codec ID : A_DTS
Duration : 1 h 36 min
Bit rate mode : Constant
Bit rate : 1 509 kb/s
Channel(s) : 6 channels
Channel layout : C L R Ls Rs LFE
Sampling rate : 48.0 kHz
Frame rate : 93.750 FPS (512 SPF)
Bit depth : 24 bits
Compression mode : Lossy
Stream size : 1.01 GiB (11%)
Title : Original
Language : English
Default : No
Forced : No

Text #1
ID : 5
Format : UTF-8
Codec ID : S_TEXT/UTF8
Codec ID/Info : UTF-8 Plain Text
Duration : 55 min 58 s
Bit rate : 1 b/s
Count of elements : 19
Stream size : 729 Bytes (0%)
Title : Forced
Language : Russian
Default : Yes
Forced : Yes

Text #2
ID : 6
Format : UTF-8
Codec ID : S_TEXT/UTF8
Codec ID/Info : UTF-8 Plain Text
Duration : 1 h 35 min
Bit rate : 108 b/s
Count of elements : 1500
Stream size : 76.0 KiB (0%)
Title : Full
Language : Russian
Default : No
Forced : No

Text #3
ID : 7
Format : UTF-8
Codec ID : S_TEXT/UTF8
Codec ID/Info : UTF-8 Plain Text
Duration : 55 min 59 s
Bit rate : 1 b/s
Count of elements : 19
Stream size : 750 Bytes (0%)
Title : Forced
Language : Ukrainian
Default : No
Forced : No

Text #4
ID : 8
Format : UTF-8
Codec ID : S_TEXT/UTF8
Codec ID/Info : UTF-8 Plain Text
Duration : 1 h 30 min
Bit rate : 75 b/s
Count of elements : 1774
Stream size : 50.2 KiB (0%)
Title : Full
Language : English
Default : No
Forced : No

Text #5
ID : 9
Format : UTF-8
Codec ID : S_TEXT/UTF8
Codec ID/Info : UTF-8 Plain Text
Duration : 1 h 30 min
Bit rate : 88 b/s
Count of elements : 2098
Stream size : 58.6 KiB (0%)
Title : SDH
Language : English
Default : No
Forced : No

Menu
00:00:00.000 : :Chapter 01
00:09:56.262 : :Chapter 02
00:21:36.295 : :Chapter 03
00:32:10.637 : :Chapter 04
00:38:33.602 : :Chapter 05
00:49:59.705 : :Chapter 06
00:55:37.167 : :Chapter 07
01:01:53.209 : :Chapter 08
01:12:04.278 : :Chapter 09
01:18:26.076 : :Chapter 10
01:26:16.796 : :Chapter 11
01:31:12.300 : :Chapter 12


Релиз от:


_________________
Проголосуй за трекер Открытый торрент трекер - RUS-MEDIA.ORG

Проголосуй Открытый торрент трекер - RUS-MEDIA.ORG


Вернуться к началу
 Профиль  
 
   Похожие торренты   Автор   Торрент   Размер 
В этой теме нет новых непрочитанных сообщений. Смолфут / Smallfoot [Мультфильм, мюзикл, фэнтези, 2018] BDRip 1080p, Dub [Лицензия] [3D-Video]

salma3

0 | 0

9.02 ГБ

В этой теме нет новых непрочитанных сообщений. Смолфут / Smallfoot [Мультфильм, мюзикл, фэнтези, 2018] BDRip 1080p, Dub [iTunes]

salma3

0 | 0

5.53 ГБ

В этой теме нет новых непрочитанных сообщений. Смолфут / Smallfoot [Мультфильм, мюзикл, фэнтези, 2018] BDRip, Dub [iTunes]

salma3

0 | 0

1.42 ГБ

В этой теме нет новых непрочитанных сообщений. Смолфут / Smallfoot [Мультфильм, мюзикл, фэнтези, 2018] BDRemux 1080p, Dub [Лицензия] [3D-Video]

salma3

0 | 0

32.11 ГБ

В этой теме нет новых непрочитанных сообщений. Смолфут / Smallfoot [Мультфильм, мюзикл, фэнтези, 2018] BDRip, Dub [Лицензия]

salma3

0 | 0

1.46 ГБ

В этой теме нет новых непрочитанных сообщений. Смолфут / Smallfoot [Мультфильм, мюзикл, фэнтези, 2018] Blu-Ray 1080p, Dub [Лицензия]

salma3

0 | 0

43.76 ГБ

В этой теме нет новых непрочитанных сообщений. Смолфут / Smallfoot [мультфильм, мюзикл, фэнтези, 2018] DVD9, Dub [Лицензия]

salma3

0 | 1

5.77 ГБ


Начать новую тему Ответить на тему  [ 1 сообщение ] 




Для Мосгорсуда, Роскомнадзора и рекламодателей:: mosgorsud-torrent[собачка]yandex.ru
cron