Торрент файл
скачать торрент магнет ссылка Добавлен: 22 окт 2011, 00:34
Размер: 745.56 МБ
Сидеров: 19
Личеров: 10
Автор

СообщениеДобавлено: 22 окт 2011, 00:34 

Не в сети
Супермодератор
Аватара пользователя
Дата регистрации:
22 май 2010, 11:03
Возраст: 34
Спасибо: 7853 / 13
Сообщения: 49837
Серенада Великого Каньона / Great Canyon Serenade



Перевод: Не требуется, cубтитры: отсутствуют
Формат: HDRip-AVC, MKV, H.264, AC3
Страна: США
Режиссер: Ян Никман
Жанр: документальный, релакс
Продолжительность: 00:55:12
Год выпуска: 2011

Описание: Ранее показанный по телевидению фильм "Серенада Великого Каньона" открывает нам прекрасную реку Колорадо и Великий Каньон Соединённых Штатов. В сочетании с замечательной музыкой Чайковского, Вивальди и других композиторов классичекой музыки просмотр этого видео поможет вам пережить одно из самых великолепных приключений на планете.

Видео: 864 x 480 (1.80:1), 23.976 fps, AVC (х264) , ~ 1611 Kbps, 0.162 bit/pixel
Аудио: 48 kHz, AC3 Dolby Digital, 3/2 (L,C,R,l,r) + LFE ch, ~384 kbps


Рип: jeenart

General
Unique ID: 247612983396142130045411912849503560075 (0xBA4886A39F27849EA10F797748E8218B)
Complete name: F:\Мои релизы\Все релизы 10\serenada_velikogo_kanyona_[tfile.ru].mkv
Format: Matroska
File size: 746 MiB
Duration: 52mn 12s
Overall bit rate: 1 997 Kbps
Encoded date: UTC 2011-09-23 06:28:46
Writing application: mkvmerge v4.6.0 ('Still Crazy After All These Years') сборка от Apr1 2011 21:01:49
Writing library: libebml v1.2.0 + libmatroska v1.1.0

Video
ID: 1
Format: AVC
Format/Info: Advanced Video Codec
Format profile:
Format settings, CABAC: Yes
Format settings, ReFrames: 4 frames
Format settings, GOP: M=4, N=16
Codec ID: V_MPEG4/ISO/AVC
Duration: 52mn 12s
Bit rate: 1 611 Kbps
Width: 864 pixels
Height: 480 pixels
Display aspect ratio: 16:9
Frame rate: 23.976 fps
Color space: YUV
Chroma subsampling: 4:2:0
Bit depth: 8 bits
Scan type: Progressive
Bits/(Pixel*Frame): 0.162
Stream size: 587 MiB (79%)
Writing library: x264 core 115 r1937 aa21558
Encoding settings: cabac=1 / ref=3 / deblock=1:-1:-1 / analyse=0x3:0x113 / me=hex / subme=7 / psy=1 / psy_rd=1.00:0.10 / mixed_ref=1 / me_range=16 / chroma_me=1 / trellis=1 / 8x8dct=1 / cqm=0 / deadzone=21,11 / fast_pskip=1 / chroma_qp_offset=-3 / threads=6 / sliced_threads=0 / nr=0 / decimate=1 / interlaced=0 / bluray_compat=0 / constrained_intra=0 / bframes=3 / b_pyramid=2 / b_adapt=1 / b_bias=0 / direct=1 / weightb=1 / open_gop=0 / weightp=2 / keyint=250 / keyint_min=23 / scenecut=40 / intra_refresh=0 / rc_lookahead=40 / rc=2pass / mbtree=1 / bitrate=1611 / ratetol=1.0 / qcomp=0.60 / qpmin=0 / qpmax=69 / qpstep=4 / cplxblur=20.0 / qblur=0.5 / ip_ratio=1.40 / aq=1:1.00

Audio
ID: 2
Format: AC-3
Format/Info: Audio Coding 3
Mode extension: CM (complete main)
Codec ID: A_AC3
Duration: 52mn 12s
Bit rate mode: Constant
Bit rate: 384 Kbps
Channel(s): 6 channels
Channel positions: Front: L C R, Side: L R, LFE
Sampling rate: 48.0 KHz
Bit depth: 16 bits
Compression mode: Lossy
Stream size: 143 MiB (19%)


























Поделиться:



Вернуться к началу
 Профиль Отправить личное сообщение  
 
   Похожие торренты   Автор   Торрент   Размер 
В этой теме нет новых непрочитанных сообщений. Каньон / The Canyon [триллер, 2009] DVDRip, Dvo

salma3

77 | 354

2.06 ГБ

В этой теме нет новых непрочитанных сообщений. [Bang.com] Brooke Haze Cannot Be Tamed From Fucking In The Canyon! (16.07.2018) [All sex]

salma3

0 | 0

784.51 МБ

В этой теме нет новых непрочитанных сообщений. Большие гонки / The Great Race [Мелодрама, комедия, приключения, 1965] HDRip-AVC, Dub

salma3

22 | 4

1.45 ГБ

В этой теме нет новых непрочитанных сообщений. Великие боевые машины Второй Мировой: Бомбардировщики союзников / Great Fighting Machines of WW2 - Allied Bombers (Джонатан Мур) [1990, документальный, SATRip] VO

salma3

0 | 3

277.28 МБ

В этой теме нет новых непрочитанных сообщений. Первая мировая война / The Great War [01-03 из 3] [Документальный, война, история, ] ] WEB-DLRip 720p, Mvo[Кравец]

salma3

133 | 44

7.03 ГБ

В этой теме нет новых непрочитанных сообщений. Великий Уолдо Пеппер / The Great Waldo Pepper [драма, приключения, 1975] HDRip, Mvo

salma3

28 | 5

1.45 ГБ

В этой теме нет новых непрочитанных сообщений. Великолепная Гилли Хопкинс / The Great Gilly Hopkins [Комедия, драма, семейный, 2016] HDRip, Mvo

salma3

1869 | 215

1.45 ГБ


Начать новую тему Ответить на тему  [ 1 сообщение ] 




Для Мосгорсуда, Роскомнадзора и рекламодателей:: mosgorsud-torrent[собачка]yandex.ru
cron