Торрент файл
скачать торрент магнет ссылка Добавлен: 22 окт 2011, 00:36
Размер: 1.76 ГБ
Сидеров: 33
Личеров: 12
Автор

СообщениеДобавлено: 22 окт 2011, 00:36 

Не в сети
Супермодератор
Аватара пользователя
Дата регистрации:
22 май 2010, 11:03
Возраст: 34
Спасибо: 7853 / 13
Сообщения: 49837
Цветы / HD Moods: Flowers




Перевод: Не требуется (речи нет), музыкальное сопровождение
Формат: HDRip, AVI, XviD, AC3
Страна: США

Жанр: музыка, релакс
Продолжительность: 01:08:09
Год выпуска: 2008

Описание: Вообразите Цветы настолько красочными и яркими, что Вы можете почувствовать их запах!
Цветы от HDMoods приведут Вас в волшебный сад, куда Розы, Тюльпаны, Маргаритки и много
других красочных живых цветов прибывают через Ваш экран. Испытайте чувство
замечательного весеннего дня, когда земля разрывается в цвете красок. Расслабление
под виды цветника и красивую музыку.


Видео: 720x400 (1.80:1), 24 fps, XviD MPEG-4 ~2404 kbps avg, 0.35 bit/pixel
Аудио: #1: 48 kHz, AC3 Dolby Digital, 3/2 (L,C,R,l,r) + LFE ch, ~320 kbps [Инструментал]
Аудио: #2: 48 kHz, AC3 Dolby Digital, 3/2 (L,C,R,l,r) + LFE ch, ~320 kbps [Нью-эйдж]
Аудио: #3: 48 kHz, AC3 Dolby Digital, 3/2 (L,C,R,l,r) + LFE ch, ~320 kbps [Релаксация] (отдельно)
Аудио: #4: 48 kHz, AC3 Dolby Digital, 3/2 (L,C,R,l,r) + LFE ch, ~320 kbps [Звуки природы] (отдельно)

Доп. информация:
Фильм содержит 4 звуковые дорожки:
Инструментал (по умолчанию), Нью-эйдж, Релаксация, Звуки природы


[Звуки природы]

General
Complete name: E:\РЕЛИЗЫ\Все релизы 16\cvetu_[tfile.ru]\cvetu_[tfile.ru].Nature.ac3
Format: AC-3
Format/Info: Audio Coding 3
File size: 156 MiB
Duration: 1h 8mn
Overall bit rate: 320 Kbps

Audio
Format: AC-3
Format/Info: Audio Coding 3
Mode extension: CM (complete main)
Duration: 1h 8mn
Bit rate mode: Constant
Bit rate: 320 Kbps
Channel(s): 6 channels
Channel positions: Front: L C R, Side: L R, LFE
Sampling rate: 48.0 KHz
Bit depth: 16 bits
Compression mode: Lossy
Stream size: 156 MiB (100%)

[Релаксация]

General
Complete name: E:\РЕЛИЗЫ\Все релизы 16\cvetu_[tfile.ru]\cvetu_[tfile.ru].Relax.ac3
Format: AC-3
Format/Info: Audio Coding 3
File size: 156 MiB
Duration: 1h 8mn
Overall bit rate: 320 Kbps

Audio
Format: AC-3
Format/Info: Audio Coding 3
Mode extension: CM (complete main)
Duration: 1h 8mn
Bit rate mode: Constant
Bit rate: 320 Kbps
Channel(s): 6 channels
Channel positions: Front: L C R, Side: L R, LFE
Sampling rate: 48.0 KHz
Bit depth: 16 bits
Compression mode: Lossy
Stream size: 156 MiB (100%)











Поделиться:



Вернуться к началу
 Профиль Отправить личное сообщение  
 
   Похожие торренты   Автор   Торрент   Размер 
В этой теме нет новых непрочитанных сообщений. Сломанные цветы / Broken Flowers [драма, мелодрама, комедия, 2005] HDRip, Mvo

salma3

44 | 28

1.45 ГБ

В этой теме нет новых непрочитанных сообщений. Не присылай мне цветы / Send Me No Flowers [Комедия, 1964] BDRip-AVC, Mvo

salma3

0 | 0

2.18 ГБ

В этой теме нет новых непрочитанных сообщений. Горькие цветы / Bitter Flowers [Драма, 2017] WEBRip, Mvo [Mallorn Studio]

salma3

0 | 0

1.2 ГБ

В этой теме нет новых непрочитанных сообщений. Цветы на чердаке / Flowers in the Attic [триллер, драма, детектив, 1987] BDRip, Mvo

salma3

10 | 4

1.46 ГБ

В этой теме нет новых непрочитанных сообщений. Сломанные цветы / Broken Flowers [драма, мелодрама, комедия, 2005] BDRip 720p, 2Mvo+Sub

salma3

4 | 17

6.32 ГБ

В этой теме нет новых непрочитанных сообщений. Сломанные цветы / Broken Flowers [драма, мелодрама, комедия, детектив, 2005] BDRip 1080p, 2Mvo+Sub

salma3

6 | 11

9.56 ГБ

В этой теме нет новых непрочитанных сообщений. Цветы войны / The Flowers of War / Jin líng shí san chai [Драма, военный, история, экранизация, 2011] BDRemux 1080p, Dub

salma3

17 | 18

29.04 ГБ


Начать новую тему Ответить на тему  [ 1 сообщение ] 




Для Мосгорсуда, Роскомнадзора и рекламодателей:: mosgorsud-torrent[собачка]yandex.ru
cron
cron