Торрент файл
скачать торрент магнет ссылка Добавлен: 22 окт 2011, 00:36
Размер: 2.3 ГБ
Сидеров: 18
Личеров: 14
Автор

СообщениеДобавлено: 22 окт 2011, 00:36 

Не в сети
Супермодератор
Аватара пользователя
Дата регистрации:
22 май 2010, 11:03
Возраст: 34
Спасибо: 7853 / 13
Сообщения: 49837
Исследователь Открытого Космоса / Deep Space Explorer



Перевод: Не требуется, cубтитры: отсутствуют
Формат: HDRip, MKV, H.264, AC3
Страна: США
Жанр: релакс
Продолжительность: 00:59:26
Год выпуска: 2010

Описание: Тщательно подготовленная и составленная, данная видеопрограмма позволит вам перенестись в захватывающее межгалактическое путешествие посредством нескольких эксклюзивных видео эпизодов в изумительном качестве высокой чёткости - выбирая музыкальное оформление "глубокое погружение в космос" с объёмным 5.1-звуком, эксклюзивно записанного для этого издания, или же "окружение космического пространства". Вы совершите путешествие через межгалактические тоннели и туманности космических скоплений. Погрузитесь в глубины космического пространства, иных миров, неизвестных планет, параллельных вселенных с непостижимой игрой света и увидите рождение новых солнечных систем.

Видео: 1280x720 (16:9), 25 fps, AVC MPEG-4, ~4500 kbps avg, 0.195 bit/pixel
Аудио: 48 kHz, AC-3, 6 ch, (Front: L C R, Side: L R, LFE) ~512 kbps avg
Видео
Идентификатор: 1
Формат: AVC
Формат/Информация: Advanced Video Codec
Профиль формата:
Параметр CABAC формата: Да
Параметр ReFrames формата: 3 кадры
Идентификатор кодека: V_MPEG4/ISO/AVC
Продолжительность: 59 м.
Битрейт: 4500 Кбит/сек
Ширина: 1280 пикс.
Высота: 720 пикс.
Соотношение сторон: 16:9
Режим частоты кадров: Переменный
Частота кадров: 25,000 кадр/сек
Цветовое пространство: YUV
Подвыборка цветности: 4:2:0
Битовая глубина: 8 бит
Тип развёртки: Прогрессивная
Бит/(Пиксели*Кадры): 0.195
Размер потока: 1,82 Гбайт (79%)
Заголовок: Deep space explorer
Библиотека кодирования: x264 core 113

Аудио
Идентификатор: 2
Формат: AC-3
Формат/Информация: Audio Coding 3
Расширение режима: CM (complete main)
Идентификатор кодека: A_AC3
Продолжительность: 59 м.
Вид битрейта: Постоянный
Битрейт: 512 Кбит/сек
Канал(ы): 6 канала(ов)
Расположение каналов: Front: L C R, Side: L R, LFE
Частота: 48,0 КГц
Битовая глубина: 16 бит
Метод сжатия: С потерями
Размер потока: 218 Мбайт (9%)
Заголовок: deep space lounge
Язык: English








Поделиться:



Вернуться к началу
 Профиль Отправить личное сообщение  
 
   Похожие торренты   Автор   Торрент   Размер 
В этой теме нет новых непрочитанных сообщений. Кот из космоса / The Cat from Outer Space [фантастика, комедия, семейный, 1978] WEBRip, Dvo

salma3

0 | 0

1.45 ГБ

В этой теме нет новых непрочитанных сообщений. Клоуны-убийцы из космоса / Killer Klowns from Outer Space [комедия, ужасы, фантастика, 1988] BDRemux 1080р, Mvo [Remastered]

salma3

0 | 0

25.89 ГБ

В этой теме нет новых непрочитанных сообщений. Kerbal Space Program [Simulator (Space), 3D, 2015] [Steam-Rip]

Sykre

8 | 3

1.21 ГБ

В этой теме нет новых непрочитанных сообщений. Survive in Space [Action (Space), Indie, 2016] [RePack]

Sykre

9 | 66

1.11 ГБ

В этой теме нет новых непрочитанных сообщений. Endless Space 2 [Strategy (Space), 3D, 2016] [RePack]

Sykre

1 | 4

3.69 ГБ

В этой теме нет новых непрочитанных сообщений. Звездный путь: Глубокий космос 9 / Star Trek: Deep Space Nine [S01-07] [Фантастика, 1993-1998] WEBDL-AVC, Mvo [SDI Media]

salma3

21 | 36

56.47 ГБ

В этой теме нет новых непрочитанных сообщений. Космические дальнобойщики / Space Truckers [Фантастика, Триллер, Приключения, 1996] HDRip, Mvo [ТВЦ]

salma3

92 | 40

1.45 ГБ


Начать новую тему Ответить на тему  [ 1 сообщение ] 




Для Мосгорсуда, Роскомнадзора и рекламодателей:: mosgorsud-torrent[собачка]yandex.ru
cron