Торрент файл
скачать торрент магнет ссылка Добавлен: 07 апр 2019, 11:29
Размер: 745.1 МБ
Сидеров: 1
Личеров: 0
Статус: (salma3)
Автор

СообщениеДобавлено: 07 апр 2019, 11:29 

Не в сети
Супермодератор
Аватара пользователя
Дата регистрации:
15 фев 2012, 16:44
Возраст: 29
Спасибо: 7943 / 2147
Сообщения: 86693
Год выхода: 1975
Жанр: Драма
Режиссер: Рэдли Метцгер

В ролях: Ребекка Брук, Карл Паркер, Мэрлин Робертс, Мишель Ванс, Эстель Налли

О фильме: Светский тусовщик Жан, вернувшись в Париж после трехлетнего проживания за границей и "с корабля на бал" отправившийся на модную вечеринку, встретил там свою давнюю знакомую Клер. Однако женщина была не одна, а в сопровождении молодой и привлекательной блондинки Анны. Отправившись после скучной вечеринки в ресторан, Клер сообщила Жану, что Анна является ее собственностью... Через неделю Жан и Клер встретились вновь и пошли прогуляться в Парижский ботанический сад, где Анну заставили сначала украсть цветок, а потом и помочиться перед Жаном. С этого момента молодой человек потихонечку стал втягиваться в странные отношения двух женщин, и вскоре Клер передала свою рабыню в полнейшее подчинение Жану, который не стал противиться, а с удовольствием присоединился к публичному унижению и избиению Анны. Однако столь странный любовный треугольник не мог существовать вечно, и в один прекрасный день отношения его участников друг к другу резко изменились...



Страна: США
Продолжительность: 01:31:25
Перевод: Авторский (одноголосый, закадровый) (Антон Алексеев)

Файл
Кодек: XviD
Качество: HDRip
Видео: 704x384 (1.83:1), 23.976 fps, XviD build 73 ~1005 kbps avg, 0.16 bit/pixel
Звук: 48 kHz, MPEG Layer 3, 2 ch, ~128.00 kbps avg



General
Complete name : The.Punishment.of.Anne.1975.HDRip.Portablius.avi
Format : AVI
Format/Info : Audio Video Interleave
File size : 745 MiB
Duration : 1 h 31 min
Overall bit rate : 1 143 kb/s
Writing application : VirtualDubMod 1.5.10.3 | http://www.virtualdub-fr.org || (build 2550/release)
Writing library : VirtualDubMod build 2550/release

Video
ID : 0
Format : MPEG-4 Visual
Format profile : Advanced Simple@L5
Format settings, BVOP : 1
Format settings, QPel : No
Format settings, GMC : No warppoints
Format settings, Matrix : Custom
Codec ID : XVID
Codec ID/Hint : XviD
Duration : 1 h 31 min
Bit rate : 1 006 kb/s
Width : 704 pixels
Height : 384 pixels
Display aspect ratio : 1.85:1
Frame rate : 23.976 (24000/1001) FPS
Color space : YUV
Chroma subsampling : 4:2:0
Bit depth : 8 bits
Scan type : Progressive
Compression mode : Lossy
Bits/(Pixel*Frame) : 0.155
Stream size : 656 MiB (88%)
Writing library : XviD 73

Audio
ID : 1
Format : MPEG Audio
Format version : Version 1
Format profile : Layer 3
Codec ID : 55
Codec ID/Hint : MP3
Duration : 1 h 31 min
Bit rate mode : Constant
Bit rate : 128 kb/s
Channel(s) : 2 channels
Sampling rate : 48.0 kHz
Compression mode : Lossy
Stream size : 83.4 MiB (11%)
Alignment : Aligned on interleaves
Interleave, duration : 42 ms (1.00 video frame)
Interleave, preload duratio : 504 ms
Writing library : LAME3.99r
Encoding settings : -m s -V 4 -q 2 -lowpass 17 -b 128



_________________
Проголосуй за трекер Открытый торрент трекер - RUS-MEDIA.ORG

Проголосуй Открытый торрент трекер - RUS-MEDIA.ORG


Вернуться к началу
 Профиль Отправить личное сообщение  
 
   Похожие торренты   Автор   Торрент   Размер 
В этой теме нет новых непрочитанных сообщений. Дневник Анны Франк / The Diary of Anne Frank [драма, военный, биография, 2009] HDRip, Mvo

salma3

20 | 9

1.37 ГБ

В этой теме нет новых непрочитанных сообщений. Marie Anne (23 ролика) (aka Marianne, Maria, Marie-Anne, Mary Anne, Suzie, Wendy Willich or uncredited) Pack / Marie Anne [2000-2004, Straight, Anal, DP, DVDRip, DVD5]

salma3

0 | 0

9.17 ГБ

В этой теме нет новых непрочитанных сообщений. Аэропорт 1975 / Airport 1975 [боевик, триллер, драма, 1974] HDRip, Mvo

salma3

188 | 36

1.45 ГБ

В этой теме нет новых непрочитанных сообщений. [CherryPimps.com / WildOnCam.com] Kinsley Anne - Bubbly Babe Kinsley Anne LIVE! [June 13, 2018 г., Solo, Posing, Masturbation, Big Tits, Toys, 720p]

salma3

0 | 0

2.14 ГБ

В этой теме нет новых непрочитанных сообщений. Juanita DaCosta (22 ролика) (aka Julia Romina, Julie, Anne de Laurette, Anne de Lorette, Julina Corovanca, Julia) Pack / Спортсменка - растяжница [1999-2003, Hardcore, Anal, Fisting, Lesbo]

salma3

0 | 1

7.17 ГБ

В этой теме нет новых непрочитанных сообщений. Аэропорт 1975 / Airport 1975 [боевик, триллер, драма, 1974] BDRip 720p, Mvo+Sub

salma3

89 | 43

4.51 ГБ

В этой теме нет новых непрочитанных сообщений. [HeavyOnHotties.com] Blanche aka Blanche Summer, Gaga, Krystal Anne, Crystal Anne - Hey Missus DJ (11.05.2018) [2018 г., Blonde, Tattoo, Small Tits, Blowjob, Deep Throat, Doggystyle, Gonzo, Hardcore, Facial, 1080p]

salma3

0 | 0

2.46 ГБ


Начать новую тему Ответить на тему  [ 1 сообщение ] 




Для Мосгорсуда, Роскомнадзора и рекламодателей:: mosgorsud-torrent[собачка]yandex.ru
cron